<?xml version="1.0" standalone="no"?>
<!DOCTYPE svg PUBLIC "-//W3C//DTD SVG 1.1//EN" "http://www.w3.org/Graphics/SVG/1.1/DTD/svg11.dtd" >
<svg xmlns="http://www.w3.org/2000/svg" xmlns:xlink="http://www.w3.org/1999/xlink" version="1.1">
<metadata>
Created by FontForge 20190801 at Sun Jul 10 09:11:11 2016
 By www-data
(c) Copyright David Jonathan Ross, 2016. All rights reserved.
</metadata>
<defs>
<font id="OutputSansThin" horiz-adv-x="555" >
  <font-face 
    font-family="OutputSansThin"
    font-weight="250"
    font-stretch="semi-condensed"
    units-per-em="1000"
    panose-1="0 0 0 0 0 0 0 2 0 0"
    ascent="761"
    descent="-239"
    x-height="522"
    cap-height="696"
    bbox="-160 -217 1038 1131"
    underline-thickness="0"
    underline-position="0"
    unicode-range="U+0020-FEFF"
  />
<missing-glyph horiz-adv-x="667" 
d="M51 -217v957h565v-957h-565zM80 -189h506v900h-506v-900z" />
    <glyph glyph-name=".notdef" horiz-adv-x="667" 
d="M51 -217v957h565v-957h-565zM80 -189h506v900h-506v-900z" />
    <glyph glyph-name=".null" horiz-adv-x="0" 
 />
    <glyph glyph-name="nonmarkingreturn" horiz-adv-x="333" 
 />
    <glyph glyph-name="space" unicode=" " horiz-adv-x="274" 
 />
    <glyph glyph-name="space" unicode="&#xa0;" horiz-adv-x="274" 
 />
    <glyph glyph-name="exclam" unicode="!" horiz-adv-x="347" 
d="M166 185l-6 511h31l-6 -511h-19zM174 -4q-12 0 -19 7.5t-7 19.5q0 28 26 28t26 -28q0 -27 -26 -27z" />
    <glyph glyph-name="quotedbl" unicode="&#x22;" horiz-adv-x="323" 
d="M215 542l-7 154h33l-7 -154h-19zM89 542l-7 154h33l-7 -154h-19z" />
    <glyph glyph-name="numbersign" unicode="#" horiz-adv-x="746" 
d="M473 221l11 256h-208l-12 -256h209zM461 0l11 197h-209l-10 -197h-22l9 197h-148v24h149l12 256h-161v22h162l9 197h24l-10 -197h208l10 197h22l-9 -197h146v-22h-147l-12 -256h159v-24h-160l-9 -197h-24z" />
    <glyph glyph-name="dollar" unicode="$" horiz-adv-x="586" 
d="M112 508q0 -52 36 -81.5t131 -58.5v269q-79 -2 -123 -35t-44 -94zM479 187q0 59 -42 90.5t-138 60.5v-279q81 2 130.5 38t49.5 90zM301 -64h-24v103q-117 0 -192 61l10 19q74 -59 184 -60v285q-107 31 -149 66.5t-42 96.5q0 70 49 109t140 43v86h24v-86q108 -2 179 -52
q-1 -1 -2.5 -3t-4.5 -7t-3 -7t1 -3q-72 47 -172 50v-275q108 -31 155.5 -68.5t47.5 -104.5q0 -62 -54.5 -104.5t-146.5 -45.5v-103z" />
    <glyph glyph-name="percent" unicode="%" horiz-adv-x="799" 
d="M200 338q-64 0 -101 47t-37 139q0 88 37.5 134.5t100.5 46.5t100 -46t37 -132q0 -93 -37 -141t-100 -48zM189 1l399 696l25 -2l-399 -696zM200 360q53 0 83.5 42t30.5 124q0 76 -30.5 117t-83.5 41q-54 0 -85 -41t-31 -119q0 -81 31 -122.5t85 -41.5zM600 -10
q-64 0 -101 46t-37 134q0 93 37 140t101 47t101 -46.5t37 -137.5q0 -89 -37.5 -136t-100.5 -47zM600 11q53 0 83.5 41t30.5 121t-30 121t-84 41t-84.5 -41.5t-30.5 -123.5q0 -78 30.5 -118.5t84.5 -40.5z" />
    <glyph glyph-name="ampersand" unicode="&#x26;" horiz-adv-x="645" 
d="M194 527q0 -59 27 -129q200 79 200 181q0 52 -30.5 79t-75.5 27q-56 0 -88.5 -44.5t-32.5 -113.5zM247 13q99 0 179 91q-150 117 -218 265q-132 -62 -132 -192q0 -81 46 -122.5t125 -41.5zM614 -2q-85 31 -170 92q-87 -99 -197 -99q-90 0 -142.5 46.5t-52.5 139.5
q0 144 148 212q-30 70 -30 138q0 79 39.5 129.5t105.5 50.5q55 0 92 -32t37 -94q0 -35 -17.5 -66t-51 -56t-66.5 -42.5t-80 -38.5q65 -144 211 -257q68 85 109 227l21 -8q-41 -142 -111 -232q76 -55 162 -88z" />
    <glyph glyph-name="quotesingle" unicode="'" horiz-adv-x="224" 
d="M102 542l-6 154h31l-7 -154h-18z" />
    <glyph glyph-name="parenleft" unicode="(" horiz-adv-x="434" 
d="M341 -183q-127 33 -200.5 149t-73.5 295t73.5 295.5t200.5 148.5l5 -22q-121 -33 -187.5 -143t-66.5 -279q0 -168 67 -279t187 -143z" />
    <glyph glyph-name="parenright" unicode=")" horiz-adv-x="434" 
d="M347 261q0 -179 -73.5 -295t-201.5 -149l-4 22q120 32 186.5 142.5t66.5 279.5t-66.5 279t-186.5 143l4 22q128 -32 201.5 -148.5t73.5 -295.5z" />
    <glyph glyph-name="asterisk" unicode="*" horiz-adv-x="491" 
d="M405 375l-153 106l4 -185h-22l4 186l-155 -107l-12 19l162 100l-162 101l11 19l156 -107l-4 189h22l-4 -189l155 107l11 -19l-161 -101l161 -100z" />
    <glyph glyph-name="plus" unicode="+" horiz-adv-x="626" 
d="M302 62v232h-201v22h201v232h22v-232h201v-22h-201v-232h-22z" />
    <glyph glyph-name="comma" unicode="," horiz-adv-x="233" 
d="M66 -106q34 89 42 158h32q-12 -82 -54 -158h-20z" />
    <glyph glyph-name="hyphen" unicode="-" horiz-adv-x="510" 
d="M93 295v22h323v-22h-323z" />
    <glyph glyph-name="hyphen" unicode="&#x2011;" horiz-adv-x="510" 
d="M93 295v22h323v-22h-323z" />
    <glyph glyph-name="hyphen" unicode="&#x2010;" horiz-adv-x="510" 
d="M93 295v22h323v-22h-323z" />
    <glyph glyph-name="hyphen" unicode="&#xad;" horiz-adv-x="510" 
d="M93 295v22h323v-22h-323z" />
    <glyph glyph-name="period" unicode="." horiz-adv-x="233" 
d="M116 -3q-12 0 -19.5 7.5t-7.5 20.5t7.5 20.5t19.5 7.5q28 0 28 -28t-28 -28z" />
    <glyph glyph-name="slash" unicode="/" horiz-adv-x="434" 
d="M45 -173l320 870l24 -2l-320 -870z" />
    <glyph glyph-name="zero" unicode="0" horiz-adv-x="626" 
d="M313 -9q-108 0 -170 88.5t-62 276.5q0 178 62.5 263.5t170.5 85.5q107 0 169 -85.5t62 -263.5q0 -188 -62 -276.5t-170 -88.5zM313 14q206 0 206 342q0 167 -54.5 246.5t-150.5 79.5q-97 0 -152 -79.5t-55 -246.5q0 -342 206 -342z" />
    <glyph glyph-name="one" unicode="1" horiz-adv-x="626" 
d="M104 0v23h230v617q-20 -63 -83 -101.5t-145 -40.5l-2 24q92 2 155 49t75 125h26v-673h209v-23h-465z" />
    <glyph glyph-name="two" unicode="2" horiz-adv-x="626" 
d="M110 0v80q0 90 46.5 142t156.5 104q107 51 148 93.5t41 109.5q0 70 -47 111.5t-125 41.5q-170 0 -201 -172l-25 4q32 191 226 191q89 0 143 -47.5t54 -128.5q0 -74 -46 -122t-156 -101q-106 -52 -148 -98.5t-42 -127.5v-57h399v-23h-424z" />
    <glyph glyph-name="three" unicode="3" horiz-adv-x="626" 
d="M317 -9q-195 0 -235 166l26 7q37 -151 209 -151q89 0 143 46.5t54 134.5q0 166 -207 166h-94v23h99q103 0 144.5 35t41.5 106q0 79 -54 119t-133 40q-154 0 -187 -140l-25 7q37 155 212 155q90 0 151 -46t61 -135q0 -140 -157 -152q90 -9 132 -57t42 -121
q0 -97 -61.5 -150t-161.5 -53z" />
    <glyph glyph-name="four" unicode="4" horiz-adv-x="626" 
d="M561 204h-129v-203h-25v203h-328v23l320 470h33v-469h129v-24zM107 228h300v441z" />
    <glyph glyph-name="five" unicode="5" horiz-adv-x="626" 
d="M318 -9q-180 0 -219 188l25 4q34 -169 195 -169q89 0 140.5 58.5t51.5 152.5q0 93 -52 146.5t-138 53.5q-121 0 -180 -79h-22v350h380v-22h-355v-299q62 73 179 73q96 0 155 -59t59 -164q0 -103 -59.5 -168.5t-159.5 -65.5z" />
    <glyph glyph-name="six" unicode="6" horiz-adv-x="626" 
d="M539 220q0 -106 -58.5 -168.5t-166.5 -62.5q-107 0 -166 68.5t-59 182.5v206q0 124 56.5 191.5t162.5 67.5q87 0 136 -38t72 -112l-27 -7q-22 68 -63.5 101t-118.5 33q-95 0 -143.5 -60.5t-48.5 -175.5v-134q20 59 73.5 91.5t131.5 32.5q100 0 159.5 -58t59.5 -158z
M115 233q0 -100 51.5 -160.5t147.5 -60.5t147 55.5t51 149.5q0 92 -52.5 144t-145.5 52t-146 -48t-53 -132z" />
    <glyph glyph-name="seven" unicode="7" horiz-adv-x="626" 
d="M284 0q20 125 30.5 178.5t34.5 144.5t60 170.5t92 177.5h-429v25h455v-26q-57 -102 -93.5 -185t-60.5 -173.5t-33.5 -142t-28.5 -169.5h-27z" />
    <glyph glyph-name="eight" unicode="8" horiz-adv-x="626" 
d="M313 -11q-104 0 -164.5 51.5t-60.5 140.5q0 75 47 126t128 60q-74 8 -116 51.5t-42 108.5q0 83 55.5 130.5t152.5 47.5t152.5 -47.5t55.5 -130.5q0 -65 -42 -108.5t-116 -51.5q82 -9 128.5 -59.5t46.5 -126.5q0 -89 -60.5 -140.5t-164.5 -51.5zM130 526
q0 -67 49.5 -107.5t134.5 -40.5q86 0 134 40t48 108q0 74 -48.5 115.5t-134.5 41.5t-134.5 -41.5t-48.5 -115.5zM114 182q0 -81 52.5 -126t146.5 -45t146.5 45t52.5 126q0 79 -52.5 126t-145.5 47t-146.5 -47t-53.5 -126z" />
    <glyph glyph-name="nine" unicode="9" horiz-adv-x="626" 
d="M114 477q0 -92 52.5 -144.5t145.5 -52.5t146 48.5t53 132.5q0 100 -51.5 160.5t-147.5 60.5t-147 -55.5t-51 -149.5zM318 -11q-87 0 -136 38t-72 112l27 7q22 -68 63.5 -101t118.5 -33q95 0 143.5 61t48.5 175v134q-20 -59 -73.5 -91.5t-131.5 -32.5q-101 0 -160 58
t-59 159q0 105 58.5 167.5t166.5 62.5q107 0 166 -68.5t59 -182.5v-206q0 -124 -56.5 -191.5t-162.5 -67.5z" />
    <glyph glyph-name="colon" unicode=":" horiz-adv-x="233" 
d="M116 331q-12 0 -19.5 8t-7.5 21q0 12 7.5 20t19.5 8q28 0 28 -28q0 -29 -28 -29zM116 -3q-12 0 -19.5 7.5t-7.5 20.5t7.5 20.5t19.5 7.5q28 0 28 -28t-28 -28z" />
    <glyph glyph-name="semicolon" unicode=";" horiz-adv-x="233" 
d="M116 331q-12 0 -19.5 8t-7.5 21q0 12 7.5 20t19.5 8q28 0 28 -28q0 -29 -28 -29zM66 -106q32 83 41 158h35q-13 -81 -56 -158h-20z" />
    <glyph glyph-name="less" unicode="&#x3c;" horiz-adv-x="626" 
d="M530 60l-437 234v22l437 234l4 -25l-414 -220l414 -221z" />
    <glyph glyph-name="equal" unicode="=" horiz-adv-x="626" 
d="M101 421v22h424v-22h-424zM101 167v22h424v-22h-424z" />
    <glyph glyph-name="greater" unicode="&#x3e;" horiz-adv-x="626" 
d="M96 60l-4 24l414 221l-414 220l4 25l437 -234v-22z" />
    <glyph glyph-name="question" unicode="?" horiz-adv-x="537" 
d="M249 183h-21l-1 143q123 18 175.5 64t52.5 126q0 73 -53 119.5t-136 46.5q-141 0 -197 -108l-20 14q59 117 217 117q94 0 154.5 -53t60.5 -138q0 -88 -57 -138t-174 -67zM237 -4q-11 0 -18 8t-7 19q0 28 25 28q26 0 26 -28q0 -27 -26 -27z" />
    <glyph glyph-name="at" unicode="@" horiz-adv-x="937" 
d="M529 -172q-195 0 -312 114.5t-117 321.5q0 211 102 331t268 120q164 0 265.5 -117.5t101.5 -317.5q0 -106 -31.5 -167t-97.5 -61q-90 1 -114 106q-71 -104 -163 -104q-57 0 -93.5 50.5t-36.5 140.5q0 114 50.5 175t130.5 61q55 0 126 -29v-189q0 -96 23.5 -142t77.5 -47
q55 -1 80.5 55t25.5 151q0 192 -94.5 303t-250.5 111q-158 0 -253 -113t-95 -317q0 -197 111 -305t296 -108v-23zM434 76q87 0 156 106q-6 36 -6 81v173q-54 22 -103 23q-70 -1 -113.5 -56t-43.5 -158q0 -81 30.5 -125t79.5 -44z" />
    <glyph glyph-name="A" unicode="A" horiz-adv-x="602" 
d="M534 -1l-82 235h-302l-82 -235l-25 2l247 697h23l247 -697zM444 256l-143 413l-143 -413h286z" />
    <glyph glyph-name="B" unicode="B" horiz-adv-x="608" 
d="M89 0v696h228q89 0 139 -47t50 -124q0 -62 -35 -104t-99 -53q85 -6 131 -54t46 -123q0 -88 -55 -139.5t-156 -51.5h-249zM115 674v-298h203q78 0 121 39.5t43 107.5q0 70 -43.5 110.5t-123.5 40.5h-200zM115 354v-332h221q92 0 139.5 45t47.5 124q0 76 -48 119.5
t-139 43.5h-221z" />
    <glyph glyph-name="C" unicode="C" horiz-adv-x="618" 
d="M324 -9q-118 0 -188 91t-70 272q0 174 70.5 262.5t188.5 88.5q91 0 150.5 -48t79.5 -134l-25 -6q-39 165 -205 165q-108 0 -171 -82t-63 -246q0 -172 62.5 -256t170.5 -84q84 0 137 41t71 115l24 -6q-18 -80 -78.5 -126.5t-153.5 -46.5z" />
    <glyph glyph-name="D" unicode="D" horiz-adv-x="653" 
d="M99 0v696h203q129 0 207 -83.5t78 -260.5q0 -183 -78 -267.5t-208 -84.5h-202zM124 23h177q120 0 190.5 78t70.5 251q0 166 -70.5 244t-190.5 78h-177v-651z" />
    <glyph glyph-name="E" unicode="E" horiz-adv-x="562" 
d="M99 0v696h410v-22h-385v-282h346v-22h-346v-348h385v-22h-410z" />
    <glyph glyph-name="F" unicode="F" horiz-adv-x="535" 
d="M99 0v696h394v-22h-369v-299h324v-23h-324v-352h-25z" />
    <glyph glyph-name="G" unicode="G" horiz-adv-x="644" 
d="M579 285q0 -294 -250 -294q-123 0 -193 90.5t-70 274.5q0 175 70 262t193 87q83 0 141.5 -38t81.5 -105l-25 -7q-21 61 -72 94t-126 33q-112 0 -175 -81t-63 -245q0 -175 62.5 -258.5t175.5 -83.5q225 0 225 272v35h-234v24h259v-60z" />
    <glyph glyph-name="H" unicode="H" horiz-adv-x="633" 
d="M99 0v696h25v-304h385v304h26v-696h-26v370h-385v-369z" />
    <glyph glyph-name="I" unicode="I" horiz-adv-x="390" 
d="M43 0v22h139v652h-139v22h304v-22h-140v-652h140v-22h-304z" />
    <glyph glyph-name="J" unicode="J" horiz-adv-x="532" 
d="M236 -9q-89 0 -145 58.5t-63 161.5l26 3q6 -94 54 -147t128 -53q83 0 130 58.5t47 148.5v475h25v-475q0 -101 -54 -165.5t-148 -64.5z" />
    <glyph glyph-name="K" unicode="K" horiz-adv-x="574" 
d="M503 -1l-253 387l-126 -147v-239h-25v696h25v-425l366 426l26 -3l-249 -289l265 -404z" />
    <glyph glyph-name="L" unicode="L" horiz-adv-x="489" 
d="M99 0v696h25v-673h333v-23h-358z" />
    <glyph glyph-name="M" unicode="M" horiz-adv-x="742" 
d="M364 131l-240 514v-645h-25v698h27l248 -532l243 532h25v-698h-24v647l-236 -516h-18z" />
    <glyph glyph-name="N" unicode="N" horiz-adv-x="642" 
d="M543 -2h-30l-390 660v-658h-24v696h30l390 -661v661h24v-698z" />
    <glyph glyph-name="O" unicode="O" horiz-adv-x="651" 
d="M326 -9q-121 0 -190.5 88.5t-69.5 276.5q0 177 70.5 263t190.5 86q119 0 188.5 -85.5t69.5 -263.5q0 -189 -69 -277t-190 -88zM326 14q234 0 234 342q0 167 -62 246.5t-171 79.5q-110 0 -173 -79.5t-63 -246.5q0 -342 235 -342z" />
    <glyph glyph-name="P" unicode="P" horiz-adv-x="562" 
d="M99 0v696h176q108 0 172 -59t64 -163t-64 -164.5t-172 -60.5h-151v-249h-25zM124 271h150q97 0 154.5 55t57.5 148q0 94 -57 147t-155 53h-150v-403z" />
    <glyph glyph-name="Q" unicode="Q" horiz-adv-x="650" 
d="M562 -168q-121 -24 -186 17t-67 142q-113 6 -178 94.5t-65 270.5q0 177 70.5 263t190.5 86q119 0 188.5 -85.5t69.5 -263.5q0 -185 -67 -274t-184 -91q9 -180 223 -136zM326 14q234 0 234 342q0 167 -62 246.5t-171 79.5q-110 0 -173 -79.5t-63 -246.5q0 -342 235 -342z
" />
    <glyph glyph-name="R" unicode="R" horiz-adv-x="605" 
d="M506 -1l-199 292h-183v-291h-25v696h216q99 0 155 -55t56 -150q0 -79 -51.5 -136t-138.5 -64l199 -290zM124 313h190q86 0 136.5 50.5t50.5 127.5q0 85 -49 134t-138 49h-190v-361z" />
    <glyph glyph-name="S" unicode="S" horiz-adv-x="578" 
d="M300 -5q-167 0 -248 128l18 15q78 -121 230 -121q87 0 139 43.5t52 116.5q0 67 -47.5 103t-157.5 62q-107 25 -156.5 68t-49.5 117q0 78 53.5 125.5t143.5 47.5q146 0 222 -117l-18 -15q-76 109 -205 109q-78 0 -124 -39.5t-46 -108.5q0 -66 44.5 -103.5t145.5 -60.5
q116 -27 167.5 -69t51.5 -118q0 -82 -58.5 -132.5t-156.5 -50.5z" />
    <glyph glyph-name="T" unicode="T" horiz-adv-x="544" 
d="M259 0v674h-229v22h483v-22h-228v-674h-26z" />
    <glyph glyph-name="U" unicode="U" horiz-adv-x="643" 
d="M322 -9q-108 0 -169 71.5t-61 182.5v451h26v-451q0 -101 53 -166t151 -65q97 0 150 65t53 166v451h26v-451q0 -111 -60.5 -182.5t-168.5 -71.5z" />
    <glyph glyph-name="V" unicode="V" horiz-adv-x="614" 
d="M320 -2h-26l-253 697l26 2l240 -671l240 671l26 -2z" />
    <glyph glyph-name="W" unicode="W" horiz-adv-x="786" 
d="M562 0l-169 574l-169 -574h-26l-158 695l25 2l147 -659l169 574h23l171 -574l147 659l24 -2l-160 -695h-24z" />
    <glyph glyph-name="X" unicode="X" horiz-adv-x="597" 
d="M516 0l-219 329l-219 -329h-28l233 350l-231 346h28l219 -327l217 327h29l-232 -348l233 -348h-30z" />
    <glyph glyph-name="Y" unicode="Y" horiz-adv-x="586" 
d="M306 0h-26v275l-253 421h29l237 -397l236 397h29l-252 -421v-275z" />
    <glyph glyph-name="Z" unicode="Z" horiz-adv-x="579" 
d="M520 0h-462v23l432 651h-432v22h462v-22l-433 -651h433v-23z" />
    <glyph glyph-name="bracketleft" unicode="[" horiz-adv-x="434" 
d="M87 -174v870h266v-22h-240v-825h240v-23h-266z" />
    <glyph glyph-name="backslash" unicode="\" horiz-adv-x="434" 
d="M365 -175l-320 870l24 2l320 -870z" />
    <glyph glyph-name="bracketright" unicode="]" horiz-adv-x="434" 
d="M58 -174v23h240v825h-240v22h265v-870h-265z" />
    <glyph glyph-name="asciicircum" unicode="^" horiz-adv-x="746" 
d="M595 201l-223 465l-223 -465l-24 3l236 492h22l235 -492z" />
    <glyph glyph-name="underscore" unicode="_" horiz-adv-x="626" 
d="M101 -171v23h424v-23h-424z" />
    <glyph glyph-name="grave" unicode="`" horiz-adv-x="227" 
d="M150 539h-20q-16 29 -23 44.5t-16 45.5t-15 67h33q4 -37 10.5 -64t11.5 -42t19 -51z" />
    <glyph glyph-name="a" unicode="a" horiz-adv-x="533" 
d="M224 11q48 0 94.5 24t80.5 64v160h-178q-59 0 -96.5 -33t-37.5 -91t38.5 -91t98.5 -33zM220 -11q-68 0 -113 38.5t-45 105.5q0 69 43.5 108t114.5 39h179v84q0 71 -39 108t-109 37q-110 0 -153 -103l-22 10q49 116 177 116q78 0 124.5 -42.5t46.5 -121.5v-280
q0 -42 22 -61t61 -6l1 -23q-44 -13 -73 9.5t-30 69.5v3q-37 -41 -86 -66t-99 -25z" />
    <glyph glyph-name="b" unicode="b" horiz-adv-x="554" 
d="M267 -9q-81 0 -143 41v-32h-25v716h25v-302q76 116 178 116q81 0 132.5 -66t51.5 -190q0 -148 -59.5 -215.5t-159.5 -67.5zM264 14q196 0 196 260q0 115 -45 173.5t-119 58.5q-53 0 -94 -30t-78 -89v-332q61 -41 140 -41z" />
    <glyph glyph-name="c" unicode="c" horiz-adv-x="516" 
d="M278 -9q-98 0 -154 68t-56 204q0 132 56.5 200.5t154.5 68.5q139 0 182 -144l-24 -8q-35 128 -159 128q-87 0 -136 -61.5t-49 -183.5q0 -125 49 -187t136 -62q125 0 159 128l24 -8q-41 -143 -183 -143z" />
    <glyph glyph-name="d" unicode="d" horiz-adv-x="554" 
d="M290 508q-196 0 -196 -260q0 -114 45 -173t120 -59q96 0 171 119v332q-62 41 -140 41zM287 532q80 0 143 -41v225h25v-716h-24v109q-77 -117 -178 -117q-82 0 -133.5 66t-51.5 190q0 148 59.5 216t159.5 68z" />
    <glyph glyph-name="e" unicode="e" horiz-adv-x="522" 
d="M278 509q-84 0 -131.5 -55t-52.5 -166h351v12q0 101 -46.5 155t-120.5 54zM455 72q-56 -81 -169 -81q-104 0 -161 68.5t-57 203.5q0 133 56 201t154 68q84 0 138.5 -61.5t54.5 -172.5v-33h-377l-1 -2q0 -124 50 -186.5t143 -62.5q97 0 152 74z" />
    <glyph glyph-name="f" unicode="f" horiz-adv-x="358" 
d="M147 0v499h-115v23h115v49q0 95 58 128.5t133 6.5l-6 -21q-63 22 -111 -4t-48 -110v-49h163v-23h-163v-499h-26z" />
    <glyph glyph-name="g" unicode="g" horiz-adv-x="553" 
d="M270 239q68 0 110 35.5t42 98.5q0 61 -41.5 96t-107.5 35q-65 0 -106 -35t-41 -96q0 -62 40.5 -98t103.5 -36zM517 -38q0 -69 -62 -109.5t-177 -40.5q-107 0 -160.5 36t-53.5 92q0 81 95 121q-71 22 -71 88q0 35 20 62t54 40q-60 43 -60 122q0 68 48 110.5t123 42.5
q25 0 44 -4h182v-21q-69 1 -141 8q41 -18 64 -53.5t23 -82.5q0 -70 -48.5 -113t-126.5 -43q-51 0 -94 24q-65 -24 -65 -87q0 -35 24.5 -55t71.5 -20h176q64 0 99 -30.5t35 -86.5zM282 -167q103 0 157.5 34t54.5 93q0 46 -29 70.5t-82 24.5h-177q-9 0 -27 2q-91 -38 -91 -113
q0 -49 48 -80t146 -31z" />
    <glyph glyph-name="h" unicode="h" 
d="M124 0h-25v716h25v-319q81 135 191 135q70 0 109.5 -47t39.5 -128v-357h-25v352q0 73 -34.5 114t-95.5 41q-107 0 -185 -136v-371z" />
    <glyph glyph-name="i" unicode="i" horiz-adv-x="223" 
d="M111 649q-23 0 -23 23q0 24 23 24q24 0 24 -24q0 -23 -24 -23zM99 0v522h25v-522h-25z" />
    <glyph glyph-name="j" unicode="j" horiz-adv-x="262" 
d="M135 649q-22 0 -22 23t22 23q25 0 25 -23q0 -10 -7 -16.5t-18 -6.5zM29 -181q-34 0 -73 14l6 24q40 -14 65 -14q44 0 70 27.5t26 85.5v566h25v-566q0 -69 -33 -103t-86 -34z" />
    <glyph glyph-name="k" unicode="k" horiz-adv-x="493" 
d="M433 -1l-190 285l-119 -140v-144h-25v716h25v-540l296 347l26 -2l-187 -218l199 -302z" />
    <glyph glyph-name="l" unicode="l" horiz-adv-x="223" 
d="M99 0v716h25v-716h-25z" />
    <glyph glyph-name="m" unicode="m" horiz-adv-x="851" 
d="M124 377v-377h-25v522h25v-119q79 129 183 129q55 0 89.5 -35.5t42.5 -98.5q83 134 186 134q64 0 100 -45.5t36 -123.5v-363h-25v358q0 70 -31 109.5t-86 39.5q-98 0 -176 -131v-376h-25v358q0 70 -31 109.5t-86 39.5q-99 0 -177 -130z" />
    <glyph glyph-name="n" unicode="n" 
d="M124 0h-25v522h25v-125q81 135 191 135q70 0 110 -47t40 -128v-357h-26v352q0 73 -34 114t-96 41q-108 0 -185 -136v-371z" />
    <glyph glyph-name="o" unicode="o" horiz-adv-x="541" 
d="M270 -9q-94 0 -148 68t-54 204q0 132 54.5 200.5t148.5 68.5q92 0 147 -69t55 -201q0 -135 -54.5 -203t-148.5 -68zM270 14q84 0 130.5 61.5t46.5 186.5q0 122 -47 184t-129 62q-83 0 -130.5 -62t-47.5 -183q0 -125 47 -187t130 -62z" />
    <glyph glyph-name="p" unicode="p" horiz-adv-x="554" 
d="M264 14q196 0 196 260q0 115 -45 173.5t-119 58.5q-53 0 -94 -30t-78 -89v-332q59 -41 140 -41zM267 -9q-80 0 -143 41v-206h-25v696h25v-108q74 116 178 116q81 0 132.5 -66t51.5 -190q0 -148 -59.5 -215.5t-159.5 -67.5z" />
    <glyph glyph-name="q" unicode="q" horiz-adv-x="554" 
d="M287 532q76 0 144 -41v31h24v-696h-25v283q-77 -117 -178 -117q-82 0 -133 66t-51 190q0 148 59.5 216t159.5 68zM290 508q-197 0 -197 -260q0 -115 45.5 -173.5t119.5 -58.5q97 0 172 119v332q-62 41 -140 41z" />
    <glyph glyph-name="r" unicode="r" horiz-adv-x="380" 
d="M124 -1h-25v523h25v-109q66 116 179 116q41 0 64 -12l-5 -24q-28 13 -62 13q-110 0 -176 -117v-390z" />
    <glyph glyph-name="s" unicode="s" horiz-adv-x="489" 
d="M255 -9q-121 0 -199 62l13 19q74 -58 186 -58q66 0 110 29t44 84q0 52 -37 77.5t-123 44.5q-95 21 -136.5 51t-41.5 93q0 65 47 102t117 37q104 0 182 -64l-13 -19q-73 59 -169 59q-60 0 -99.5 -29.5t-39.5 -84.5q0 -53 36.5 -77.5t124.5 -43.5q92 -20 134.5 -51
t42.5 -93q0 -65 -51 -101.5t-128 -36.5z" />
    <glyph glyph-name="t" unicode="t" horiz-adv-x="369" 
d="M258 -8q-124 0 -124 159v348h-110v23h110v144h26v-144h171v-23h-171v-349q0 -135 99 -135q33 0 76 20l5 -23q-45 -20 -82 -20z" />
    <glyph glyph-name="u" unicode="u" 
d="M438 522h25v-522h-25v125q-81 -134 -191 -134q-70 0 -110 46.5t-40 128.5v356h26v-351q0 -74 34 -115t96 -41q107 0 185 136v371z" />
    <glyph glyph-name="v" unicode="v" horiz-adv-x="482" 
d="M253 0h-25l-192 521l26 2l179 -492l179 492l25 -2z" />
    <glyph glyph-name="w" unicode="w" horiz-adv-x="702" 
d="M483 0l-132 445l-131 -445h-25l-146 521l25 2l134 -489l132 449h22l133 -449l134 489l24 -2l-146 -521h-24z" />
    <glyph glyph-name="x" unicode="x" horiz-adv-x="444" 
d="M376 0l-156 243l-154 -243h-26l168 263l-166 259h26l155 -241l153 241h26l-167 -260l168 -262h-27z" />
    <glyph glyph-name="y" unicode="y" horiz-adv-x="490" 
d="M101 -181q-33 0 -58 8l5 24q32 -10 54 -10q42 0 66 25t44 79l21 56l-194 520l26 2l181 -492l181 492l26 -2l-221 -588q-23 -60 -53.5 -87t-77.5 -27z" />
    <glyph glyph-name="z" unicode="z" horiz-adv-x="475" 
d="M418 0h-361v23l331 476h-331v23h361v-23l-332 -476h332v-23z" />
    <glyph glyph-name="braceleft" unicode="{" horiz-adv-x="434" 
d="M401 -161v-21q-116 -2 -167 34t-51 121v189q0 54 -24 76t-87 23v19q62 1 86.5 23t24.5 72v173q0 86 51.5 122.5t166.5 34.5v-21q-103 2 -148 -30t-45 -109v-170q0 -51 -20.5 -75.5t-71.5 -28.5v-1q51 -4 71.5 -29.5t20.5 -77.5v-186q0 -77 44.5 -108.5t148.5 -29.5z" />
    <glyph glyph-name="bar" unicode="|" horiz-adv-x="286" 
d="M131 -174v870h23v-870h-23z" />
    <glyph glyph-name="braceright" unicode="}" horiz-adv-x="434" 
d="M33 -161q104 -2 148.5 29.5t44.5 108.5v186q0 52 20.5 77t71.5 30v1q-51 4 -71.5 28.5t-20.5 75.5v170q0 77 -45 109t-148 30v21q115 2 166.5 -34.5t51.5 -122.5v-173q0 -50 24.5 -72t86.5 -23v-19q-63 -1 -87 -23t-24 -76v-189q0 -85 -51 -121t-167 -34v21z" />
    <glyph glyph-name="asciitilde" unicode="~" horiz-adv-x="746" 
d="M518 184q-21 0 -38.5 8t-29.5 17.5t-29 35t-26 42.5t-31 58q-19 36 -27.5 51.5t-24 38.5t-26.5 32t-26.5 16.5t-33.5 7.5q-45 0 -72 -41t-27 -118v-138h-23v139q0 86 34 133t91 47q47 0 77 -33.5t74 -116.5q53 -100 72 -122q30 -36 69 -36q45 0 71.5 41t26.5 118v138h23
v-140q0 -86 -33.5 -132t-90.5 -46z" />
    <glyph glyph-name="exclamdown" unicode="&#xa1;" horiz-adv-x="347" 
d="M175 700q25 0 25 -27q0 -28 -25 -28q-12 0 -19.5 8t-7.5 20t7.5 19.5t19.5 7.5zM183 511l6 -511h-31l6 511h19z" />
    <glyph glyph-name="cent" unicode="&#xa2;" horiz-adv-x="563" 
d="M108 351q0 -123 46 -185.5t130 -64.5v494q-84 -3 -130 -64t-46 -180zM475 222q-41 -138 -171 -144v-121h-20v120q-94 3 -148.5 71.5t-54.5 202.5q0 128 54.5 196t148.5 71v122h20v-122q128 -6 171 -143l-25 -9q-35 124 -146 129v-494q113 6 146 128z" />
    <glyph glyph-name="sterling" unicode="&#xa3;" horiz-adv-x="623" 
d="M564 180q-11 -87 -49.5 -135.5t-99.5 -48.5q-46 0 -94.5 31t-73.5 33q-82 9 -164 -46l-28 -20l-16 21l27 20q56 41 91.5 96.5t35.5 110.5q0 52 -33 126h-106v22h92q-34 76 -34 130q0 82 57 131.5t144 49.5q165 0 212 -125l-25 -5q-45 107 -187 107q-77 0 -126.5 -42.5
t-49.5 -115.5q0 -54 37 -130h212v-22h-199q31 -74 31 -124q0 -107 -116 -198l3 -4q46 29 79 36t72 3q23 -2 46.5 -17t51 -29.5t61.5 -14.5q98 0 124 164z" />
    <glyph glyph-name="currency" unicode="&#xa4;" horiz-adv-x="651" 
d="M326 103q84 0 130.5 61.5t46.5 186.5q0 121 -47 183.5t-129 62.5q-84 0 -131 -62t-47 -183q0 -125 46.5 -187t130.5 -62zM326 79q-106 0 -159 84l-90 -92l-17 15l95 99q-31 65 -31 167q0 94 28 156l-87 91l18 15l81 -83q52 89 163 89q109 0 161 -90l86 87l17 -14l-91 -95
q28 -64 28 -157q0 -101 -31 -166l89 -93l-17 -15l-84 86q-53 -84 -159 -84z" />
    <glyph glyph-name="brokenbar" unicode="&#xa6;" horiz-adv-x="286" 
d="M131 349v347h23v-347h-23zM131 -174v348h23v-348h-23z" />
    <glyph glyph-name="section" unicode="&#xa7;" horiz-adv-x="502" 
d="M266 139q66 1 109.5 32.5t43.5 91.5q0 54 -39 83t-116 45l-16 4q-66 -1 -109 -32.5t-43 -91.5q0 -53 38.5 -81.5t114.5 -45.5q2 -1 8.5 -2.5t8.5 -2.5zM274 -169q-105 0 -187 69l15 20q76 -65 173 -65q63 0 104.5 32.5t41.5 92.5q0 61 -40.5 90t-129.5 49q-93 20 -137 53
t-44 95q0 60 38 95.5t100 44.5q-72 21 -105 53t-33 92q0 71 48.5 111t121.5 40q108 0 188 -69l-14 -19q-77 65 -175 65q-62 0 -103 -33.5t-41 -91.5q0 -62 39.5 -90.5t129.5 -47.5q93 -22 136.5 -55t43.5 -95q0 -60 -38 -95.5t-100 -43.5q72 -21 105 -53t33 -92
q0 -71 -47.5 -111.5t-122.5 -40.5z" />
    <glyph glyph-name="dieresis" unicode="&#xa8;" horiz-adv-x="528" 
d="M324 649q-22 0 -22 23t22 23q25 0 25 -23q0 -10 -7 -16.5t-18 -6.5zM202 649q-23 0 -23 23t23 23q24 0 24 -23q0 -10 -7 -16.5t-17 -6.5z" />
    <glyph glyph-name="copyright" unicode="&#xa9;" horiz-adv-x="835" 
d="M422 -84q-162 0 -259 105t-97 313q0 197 98 300t259 103q156 0 251 -103t95 -302q0 -207 -94.5 -311.5t-252.5 -104.5zM422 -67q153 0 241 100.5t88 298.5q0 189 -88.5 288.5t-239.5 99.5q-156 0 -247.5 -99t-91.5 -287q0 -199 90.5 -300t247.5 -101zM419 100
q-78 0 -122 57t-44 173q0 112 44 167t122 55q59 0 98 -33t50 -91l-21 -2q-11 50 -44 77t-83 27q-67 0 -105 -48.5t-38 -151.5q0 -106 38 -157.5t105 -51.5q51 0 84 26t43 71l21 -3q-11 -53 -49.5 -84t-98.5 -31z" />
    <glyph glyph-name="ordfeminine" unicode="&#xaa;" horiz-adv-x="413" 
d="M161 342q66 0 123 62v108h-123q-42 0 -68 -22t-26 -63q0 -40 26 -62.5t68 -22.5zM157 324q-48 0 -79.5 27t-31.5 76q0 47 30.5 74.5t78.5 27.5h129v56q0 48 -27.5 74.5t-73.5 26.5q-76 0 -108 -70l-19 6q32 82 126 82q57 0 90 -29.5t33 -86.5v-191q0 -64 64 -48l1 -20
q-36 -8 -58 6t-22 48v7q-62 -66 -133 -66z" />
    <glyph glyph-name="guillemotleft" unicode="&#xab;" horiz-adv-x="572" 
d="M284 105l-225 187v26l225 187v-28l-206 -172l206 -172v-28zM513 105l-224 187v26l224 187v-28l-204 -172l204 -172v-28z" />
    <glyph glyph-name="logicalnot" unicode="&#xac;" horiz-adv-x="742" 
d="M600 21v273h-483v25h508v-298h-25z" />
    <glyph glyph-name="registered" unicode="&#xae;" horiz-adv-x="597" 
d="M301 216q-107 0 -169.5 68.5t-62.5 196.5q0 124 63 191.5t170 67.5q103 0 164 -67t61 -191q0 -129 -60.5 -197.5t-165.5 -68.5zM301 234q99 0 153.5 63t54.5 185q0 116 -55 178.5t-153 62.5q-100 0 -157 -63t-57 -179q0 -121 56.5 -184t157.5 -63zM242 471h66
q30 -1 47.5 16t17.5 46q0 32 -17.5 49t-47.5 17h-66v-128zM242 345h-18v271h84q38 0 61 -21.5t23 -61.5q0 -35 -20 -56.5t-52 -23.5l76 -108h-22l-74 107h-58v-107z" />
    <glyph glyph-name="macron" unicode="&#xaf;" horiz-adv-x="528" 
d="M127 668v21h272v-21h-272z" />
    <glyph glyph-name="degree" unicode="&#xb0;" horiz-adv-x="428" 
d="M213 348q-64 0 -101 44.5t-37 134.5q0 86 37.5 130.5t101.5 44.5t101 -44.5t37 -131.5q0 -90 -37 -134t-102 -44zM213 370q115 0 115 155q0 78 -30 116.5t-84 38.5q-114 0 -114 -154q0 -156 113 -156z" />
    <glyph glyph-name="plusminus" unicode="&#xb1;" horiz-adv-x="626" 
d="M302 149v232h-201v22h201v232h22v-232h201v-22h-201v-232h-22zM101 30v23h424v-23h-424z" />
    <glyph glyph-name="acute" unicode="&#xb4;" horiz-adv-x="528" 
d="M202 607q57 73 101 150h36q-46 -72 -114 -150h-23z" />
    <glyph glyph-name="paragraph" unicode="&#xb6;" horiz-adv-x="518" 
d="M417 296h-152v-470h-25v470q-88 0 -141 47.5t-53 149.5t53 152.5t137 50.5h206v-870h-25v470z" />
    <glyph glyph-name="periodcentered" unicode="&#xb7;" horiz-adv-x="233" 
d="M116 314q-12 0 -19.5 8t-7.5 20q0 13 8 21t19 8q13 0 20.5 -8t7.5 -21q0 -28 -28 -28z" />
    <glyph glyph-name="cedilla" unicode="&#xb8;" horiz-adv-x="528" 
d="M266 -182q-68 0 -101 52l15 12q29 -46 86 -46q35 0 58 14.5t23 42.5q0 54 -93 63v45h19v-33q45 -5 70.5 -24t25.5 -51q0 -36 -29.5 -55.5t-73.5 -19.5z" />
    <glyph glyph-name="ordmasculine" unicode="&#xba;" horiz-adv-x="440" 
d="M220 324q-76 0 -119 47t-43 145q0 94 43.5 141t119.5 47q74 0 117 -47t43 -141q0 -98 -43 -145t-118 -47zM220 342q139 0 139 174q0 85 -36.5 127t-101.5 42q-67 0 -104 -42t-37 -126q0 -175 140 -175z" />
    <glyph glyph-name="guillemotright" unicode="&#xbb;" horiz-adv-x="572" 
d="M289 105v28l205 172l-205 172v28l224 -187v-26zM59 105v28l205 172l-205 172v28l225 -187v-26z" />
    <glyph glyph-name="onequarter" unicode="&#xbc;" horiz-adv-x="958" 
d="M318 0l320 696h25l-320 -696h-25z" />
    <glyph glyph-name="onehalf" unicode="&#xbd;" horiz-adv-x="933" 
d="M298 0l320 696h24l-319 -696h-25z" />
    <glyph glyph-name="threequarters" unicode="&#xbe;" horiz-adv-x="993" 
d="M342 0l321 696h24l-319 -696h-26z" />
    <glyph glyph-name="questiondown" unicode="&#xbf;" horiz-adv-x="537" 
d="M300 705q11 0 17.5 -7.5t6.5 -19.5q0 -28 -24 -28q-12 0 -19.5 8t-7.5 20t7.5 19.5t19.5 7.5zM288 519h21l1 -144q-123 -17 -176 -63t-53 -126q0 -74 53 -120.5t136 -46.5q142 0 197 108l21 -13q-62 -118 -218 -118q-94 0 -154 53t-60 138q0 88 57 138t174 67z" />
    <glyph glyph-name="Agrave" unicode="&#xc0;" horiz-adv-x="602" 
d="M327 780q-63 72 -115 151h34q43 -76 102 -151h-21zM534 -1l-82 235h-302l-82 -235l-25 2l247 697h23l247 -697zM444 256l-143 413l-143 -413h286z" />
    <glyph glyph-name="Aacute" unicode="&#xc1;" horiz-adv-x="602" 
d="M241 780q64 86 100 151h37q-52 -79 -115 -151h-22zM534 -1l-82 235h-302l-82 -235l-25 2l247 697h23l247 -697zM444 256l-143 413l-143 -413h286z" />
    <glyph glyph-name="Acircumflex" unicode="&#xc2;" horiz-adv-x="602" 
d="M154 792l-12 14q83 63 149 129h20q72 -69 150 -129l-12 -14q-70 48 -148 120q-67 -64 -147 -120zM534 -1l-82 235h-302l-82 -235l-25 2l247 697h23l247 -697zM444 256l-143 413l-143 -413h286z" />
    <glyph glyph-name="Atilde" unicode="&#xc3;" horiz-adv-x="602" 
d="M376 796q-46 0 -80 66q-12 21 -19 31.5t-20.5 21t-28.5 10.5q-29 0 -45 -30t-16 -80v-12h-23v13q0 58 23 94t63 36q46 0 80 -66q33 -63 68 -63q28 0 43.5 29.5t15.5 80.5v12h22v-13q0 -59 -21.5 -94.5t-61.5 -35.5zM534 -1l-82 235h-302l-82 -235l-25 2l247 697h23
l247 -697zM444 256l-143 413l-143 -413h286z" />
    <glyph glyph-name="Adieresis" unicode="&#xc4;" horiz-adv-x="602" 
d="M363 823q-23 0 -23 23t23 23q24 0 24 -23t-24 -23zM241 823q-24 0 -24 23t24 23q23 0 23 -23t-23 -23zM534 -1l-82 235h-302l-82 -235l-25 2l247 697h23l247 -697zM444 256l-143 413l-143 -413h286z" />
    <glyph glyph-name="Aring" unicode="&#xc5;" horiz-adv-x="602" 
d="M302 784q-47 0 -74.5 28.5t-27.5 80.5q0 53 27.5 82t74.5 29t74 -29t27 -82q0 -52 -27 -80.5t-74 -28.5zM302 802q38 0 59.5 23.5t21.5 67.5t-21.5 68.5t-59.5 24.5t-59.5 -24.5t-21.5 -68.5t21.5 -67.5t59.5 -23.5zM534 -1l-82 235h-302l-82 -235l-25 2l247 697h23
l247 -697zM444 256l-143 413l-143 -413h286z" />
    <glyph glyph-name="AE" unicode="&#xc6;" horiz-adv-x="817" 
d="M308 674l-146 -397h274v397h-128zM436 255h-282l-93 -255h-27l258 696h494v-22h-325v-282h285v-22h-285v-347h325v-23h-350v255z" />
    <glyph glyph-name="Ccedilla" unicode="&#xc7;" horiz-adv-x="628" 
d="M335 -182q-68 0 -101 52l15 12q29 -46 86 -46q35 0 58 14.5t23 42.5q0 54 -93 63v35q-118 0 -187.5 91t-69.5 272q0 174 70.5 262.5t188.5 88.5q91 0 150.5 -48t79.5 -134l-25 -6q-39 165 -205 165q-108 0 -171 -82t-63 -246q0 -172 62.5 -256t170.5 -84q84 0 137 41
t71 115l24 -6q-17 -76 -72.5 -122t-141.5 -51v-23q45 -5 70.5 -24t25.5 -51q0 -36 -29.5 -55.5t-73.5 -19.5z" />
    <glyph glyph-name="Egrave" unicode="&#xc8;" horiz-adv-x="562" 
d="M315 780q-59 66 -115 151h34q42 -73 101 -151h-20zM99 0v696h410v-22h-385v-282h346v-22h-346v-348h385v-22h-410z" />
    <glyph glyph-name="Eacute" unicode="&#xc9;" horiz-adv-x="562" 
d="M229 780q64 86 100 151h37q-52 -79 -115 -151h-22zM99 0v696h410v-22h-385v-282h346v-22h-346v-348h385v-22h-410z" />
    <glyph glyph-name="Ecircumflex" unicode="&#xca;" horiz-adv-x="562" 
d="M142 792l-12 14q85 64 148 129h21q78 -74 150 -129l-12 -14q-76 53 -148 120q-67 -64 -147 -120zM99 0v696h410v-22h-385v-282h346v-22h-346v-348h385v-22h-410z" />
    <glyph glyph-name="Edieresis" unicode="&#xcb;" horiz-adv-x="562" 
d="M357 823q-23 0 -23 23t23 23q24 0 24 -23t-24 -23zM235 823q-24 0 -24 23t24 23q23 0 23 -23t-23 -23zM99 0v696h410v-22h-385v-282h346v-22h-346v-348h385v-22h-410z" />
    <glyph glyph-name="Igrave" unicode="&#xcc;" horiz-adv-x="390" 
d="M211 780q-65 74 -114 151h33q49 -83 102 -151h-21zM43 0v22h139v652h-139v22h304v-22h-140v-652h140v-22h-304z" />
    <glyph glyph-name="Iacute" unicode="&#xcd;" horiz-adv-x="390" 
d="M155 780q63 82 101 151h37q-47 -71 -115 -151h-23zM43 0v22h139v652h-139v22h304v-22h-140v-652h140v-22h-304z" />
    <glyph glyph-name="Icircumflex" unicode="&#xce;" horiz-adv-x="390" 
d="M46 792l-12 14q84 65 148 129h20q74 -71 151 -129l-13 -14q-74 52 -148 120q-70 -67 -146 -120zM43 0v22h139v652h-139v22h304v-22h-140v-652h140v-22h-304z" />
    <glyph glyph-name="Idieresis" unicode="&#xcf;" horiz-adv-x="390" 
d="M257 823q-22 0 -22 23t22 23q25 0 25 -23t-25 -23zM135 823q-23 0 -23 23t23 23q24 0 24 -23t-24 -23zM43 0v22h139v652h-139v22h304v-22h-140v-652h140v-22h-304z" />
    <glyph glyph-name="Eth" unicode="&#xd0;" horiz-adv-x="661" 
d="M308 0h-202v366h-96v24h96v306h203q130 0 208 -83.5t78 -260.5q0 -183 -78.5 -267.5t-208.5 -84.5zM131 23h177q120 0 190.5 78t70.5 251q0 166 -70.5 244t-190.5 78h-177v-284h196v-24h-196v-343z" />
    <glyph glyph-name="Ntilde" unicode="&#xd1;" horiz-adv-x="642" 
d="M413 796q-27 0 -45.5 17t-35.5 49q-11 20 -18 31t-21 21.5t-29 10.5q-28 0 -44.5 -30.5t-16.5 -79.5v-12h-22v13q0 58 22.5 94t62.5 36q28 0 46 -17t35 -49q33 -63 68 -63q28 0 43.5 29.5t15.5 80.5v12h22v-13q0 -59 -22 -94.5t-61 -35.5zM543 -2h-30l-390 660v-658h-24
v696h30l390 -661v661h24v-698z" />
    <glyph glyph-name="Ograve" unicode="&#xd2;" horiz-adv-x="651" 
d="M340 780q-65 74 -114 151h33q49 -83 102 -151h-21zM326 -9q-121 0 -190.5 88.5t-69.5 276.5q0 177 70.5 263t190.5 86q119 0 188.5 -85.5t69.5 -263.5q0 -189 -69 -277t-190 -88zM326 14q234 0 234 342q0 167 -62 246.5t-171 79.5q-110 0 -173 -79.5t-63 -246.5
q0 -342 235 -342z" />
    <glyph glyph-name="Oacute" unicode="&#xd3;" horiz-adv-x="651" 
d="M274 780q63 82 101 151h37q-47 -71 -115 -151h-23zM326 -9q-121 0 -190.5 88.5t-69.5 276.5q0 177 70.5 263t190.5 86q119 0 188.5 -85.5t69.5 -263.5q0 -189 -69 -277t-190 -88zM326 14q234 0 234 342q0 167 -62 246.5t-171 79.5q-110 0 -173 -79.5t-63 -246.5
q0 -342 235 -342z" />
    <glyph glyph-name="Ocircumflex" unicode="&#xd4;" horiz-adv-x="651" 
d="M178 792l-12 14q79 60 148 129h20q74 -71 151 -129l-12 -14q-74 51 -149 120q-70 -67 -146 -120zM326 -9q-121 0 -190.5 88.5t-69.5 276.5q0 177 70.5 263t190.5 86q119 0 188.5 -85.5t69.5 -263.5q0 -189 -69 -277t-190 -88zM326 14q234 0 234 342q0 167 -62 246.5
t-171 79.5q-110 0 -173 -79.5t-63 -246.5q0 -342 235 -342z" />
    <glyph glyph-name="Otilde" unicode="&#xd5;" horiz-adv-x="651" 
d="M399 796q-46 0 -80 66q-11 20 -18 31t-21 21.5t-29 10.5q-29 0 -45 -30t-16 -80v-12h-22v13q0 58 22.5 94t62.5 36q28 0 46 -17t34 -49q16 -30 31.5 -46.5t36.5 -16.5q28 0 43.5 29.5t15.5 80.5v12h23v-13q0 -59 -22 -94.5t-62 -35.5zM326 -9q-121 0 -190.5 88.5
t-69.5 276.5q0 177 70.5 263t190.5 86q119 0 188.5 -85.5t69.5 -263.5q0 -189 -69 -277t-190 -88zM326 14q234 0 234 342q0 167 -62 246.5t-171 79.5q-110 0 -173 -79.5t-63 -246.5q0 -342 235 -342z" />
    <glyph glyph-name="Odieresis" unicode="&#xd6;" horiz-adv-x="651" 
d="M386 823q-22 0 -22 23t22 23q25 0 25 -23t-25 -23zM264 823q-23 0 -23 23t23 23q24 0 24 -23t-24 -23zM326 -9q-121 0 -190.5 88.5t-69.5 276.5q0 177 70.5 263t190.5 86q119 0 188.5 -85.5t69.5 -263.5q0 -189 -69 -277t-190 -88zM326 14q234 0 234 342q0 167 -62 246.5
t-171 79.5q-110 0 -173 -79.5t-63 -246.5q0 -342 235 -342z" />
    <glyph glyph-name="multiply" unicode="&#xd7;" horiz-adv-x="626" 
d="M119 123l180 180l-175 175l15 14l174 -175l180 180l14 -14l-180 -180l175 -175l-14 -14l-175 175l-180 -180z" />
    <glyph glyph-name="Oslash" unicode="&#xd8;" horiz-adv-x="651" 
d="M91 356q0 -229 108 -306l225 613q-41 19 -97 19q-110 0 -173 -79.5t-63 -246.5zM326 14q234 0 234 342q0 226 -117 297l-225 -614q46 -25 108 -25zM326 -9q-66 0 -117 26l-38 -104l-22 1l42 113q-125 81 -125 329q0 177 70.5 263t190.5 86q59 0 105 -20l36 100l23 -2
l-40 -108q134 -75 134 -319q0 -189 -69 -277t-190 -88z" />
    <glyph glyph-name="Ugrave" unicode="&#xd9;" horiz-adv-x="643" 
d="M348 780q-64 72 -115 151h33q49 -83 102 -151h-20zM322 -9q-108 0 -169 71.5t-61 182.5v451h26v-451q0 -101 53 -166t151 -65q97 0 150 65t53 166v451h26v-451q0 -111 -60.5 -182.5t-168.5 -71.5z" />
    <glyph glyph-name="Uacute" unicode="&#xda;" horiz-adv-x="643" 
d="M261 780q58 76 101 151h36q-44 -69 -114 -151h-23zM322 -9q-108 0 -169 71.5t-61 182.5v451h26v-451q0 -101 53 -166t151 -65q97 0 150 65t53 166v451h26v-451q0 -111 -60.5 -182.5t-168.5 -71.5z" />
    <glyph glyph-name="Ucircumflex" unicode="&#xdb;" horiz-adv-x="643" 
d="M175 792l-12 14q84 65 148 129h20q74 -71 151 -129l-12 -14q-74 51 -149 120q-70 -67 -146 -120zM322 -9q-108 0 -169 71.5t-61 182.5v451h26v-451q0 -101 53 -166t151 -65q97 0 150 65t53 166v451h26v-451q0 -111 -60.5 -182.5t-168.5 -71.5z" />
    <glyph glyph-name="Udieresis" unicode="&#xdc;" horiz-adv-x="643" 
d="M383 823q-22 0 -22 23t22 23q25 0 25 -23t-25 -23zM261 823q-23 0 -23 23t23 23q24 0 24 -23t-24 -23zM322 -9q-108 0 -169 71.5t-61 182.5v451h26v-451q0 -101 53 -166t151 -65q97 0 150 65t53 166v451h26v-451q0 -111 -60.5 -182.5t-168.5 -71.5z" />
    <glyph glyph-name="Yacute" unicode="&#xdd;" horiz-adv-x="586" 
d="M244 780q63 84 101 151h36q-46 -72 -115 -151h-22zM306 0h-26v275l-253 421h29l237 -397l236 397h29l-252 -421v-275z" />
    <glyph glyph-name="Thorn" unicode="&#xde;" horiz-adv-x="562" 
d="M99 0v696h25v-134h151q108 0 172 -54t64 -150t-64 -152.5t-172 -56.5h-151v-149h-25zM124 540v-368h150q97 0 154.5 50t57.5 136q0 85 -57 133.5t-155 48.5h-150z" />
    <glyph glyph-name="germandbls" unicode="&#xdf;" horiz-adv-x="664" 
d="M429 -8q-119 0 -193 64l15 19q76 -60 181 -60q64 0 106 29t42 85q0 53 -35.5 79.5t-114.5 43.5q-89 19 -126.5 48.5t-37.5 90.5q0 63 52 99.5t128 37.5q-2 75 -47 114.5t-113 39.5q-71 0 -116.5 -40.5t-45.5 -113.5v-528h-25v532q0 82 52.5 128t134.5 46q81 0 134 -48.5
t53 -133.5v-16q-81 0 -131.5 -29t-50.5 -85q0 -53 34.5 -77t118.5 -43q84 -18 123 -50.5t39 -92.5q0 -66 -50 -102.5t-127 -36.5z" />
    <glyph glyph-name="agrave" unicode="&#xe0;" horiz-adv-x="534" 
d="M260 607q-58 63 -115 150h34q43 -76 101 -150h-20zM224 11q48 0 94.5 24t80.5 64v160h-178q-59 0 -96.5 -33t-37.5 -91t38.5 -91t98.5 -33zM220 -11q-68 0 -113 38.5t-45 105.5q0 69 43.5 108t114.5 39h179v84q0 71 -39 108t-109 37q-110 0 -153 -103l-22 10
q49 116 177 116q78 0 124.5 -42.5t46.5 -121.5v-280q0 -42 22 -61t61 -6l1 -23q-44 -13 -73 9.5t-30 69.5v3q-37 -41 -86 -66t-99 -25z" />
    <glyph glyph-name="aacute" unicode="&#xe1;" horiz-adv-x="534" 
d="M202 607q57 73 101 150h36q-46 -72 -114 -150h-23zM224 11q48 0 94.5 24t80.5 64v160h-178q-59 0 -96.5 -33t-37.5 -91t38.5 -91t98.5 -33zM220 -11q-68 0 -113 38.5t-45 105.5q0 69 43.5 108t114.5 39h179v84q0 71 -39 108t-109 37q-110 0 -153 -103l-22 10
q49 116 177 116q78 0 124.5 -42.5t46.5 -121.5v-280q0 -42 22 -61t61 -6l1 -23q-44 -13 -73 9.5t-30 69.5v3q-37 -41 -86 -66t-99 -25z" />
    <glyph glyph-name="acircumflex" unicode="&#xe2;" horiz-adv-x="534" 
d="M105 618l-13 14q83 63 149 129h20q74 -71 151 -129l-13 -14q-74 52 -148 120q-70 -67 -146 -120zM224 11q48 0 94.5 24t80.5 64v160h-178q-59 0 -96.5 -33t-37.5 -91t38.5 -91t98.5 -33zM220 -11q-68 0 -113 38.5t-45 105.5q0 69 43.5 108t114.5 39h179v84q0 71 -39 108
t-109 37q-110 0 -153 -103l-22 10q49 116 177 116q78 0 124.5 -42.5t46.5 -121.5v-280q0 -42 22 -61t61 -6l1 -23q-44 -13 -73 9.5t-30 69.5v3q-37 -41 -86 -66t-99 -25z" />
    <glyph glyph-name="atilde" unicode="&#xe3;" horiz-adv-x="534" 
d="M323 622q-46 0 -80 66q-33 63 -68 63q-29 0 -45 -30t-16 -80v-12h-23v13q0 58 23 94t63 36q46 0 80 -66q33 -63 68 -63q28 0 43.5 29.5t15.5 80.5v12h23v-13q0 -59 -22 -94.5t-62 -35.5zM224 11q48 0 94.5 24t80.5 64v160h-178q-59 0 -96.5 -33t-37.5 -91t38.5 -91
t98.5 -33zM220 -11q-68 0 -113 38.5t-45 105.5q0 69 43.5 108t114.5 39h179v84q0 71 -39 108t-109 37q-110 0 -153 -103l-22 10q49 116 177 116q78 0 124.5 -42.5t46.5 -121.5v-280q0 -42 22 -61t61 -6l1 -23q-44 -13 -73 9.5t-30 69.5v3q-37 -41 -86 -66t-99 -25z" />
    <glyph glyph-name="adieresis" unicode="&#xe4;" horiz-adv-x="534" 
d="M319 649q-22 0 -22 23t22 23q24 0 24 -23t-24 -23zM197 649q-23 0 -23 23t23 23q24 0 24 -23q0 -10 -7 -16.5t-17 -6.5zM224 11q48 0 94.5 24t80.5 64v160h-178q-59 0 -96.5 -33t-37.5 -91t38.5 -91t98.5 -33zM220 -11q-68 0 -113 38.5t-45 105.5q0 69 43.5 108t114.5 39
h179v84q0 71 -39 108t-109 37q-110 0 -153 -103l-22 10q49 116 177 116q78 0 124.5 -42.5t46.5 -121.5v-280q0 -42 22 -61t61 -6l1 -23q-44 -13 -73 9.5t-30 69.5v3q-37 -41 -86 -66t-99 -25z" />
    <glyph glyph-name="aring" unicode="&#xe5;" horiz-adv-x="534" 
d="M253 610q-47 0 -74.5 28.5t-27.5 81.5t27.5 81.5t74.5 28.5t74.5 -28.5t27.5 -81.5t-27.5 -81.5t-74.5 -28.5zM253 628q38 0 59.5 24t21.5 68q0 43 -21.5 67.5t-59.5 24.5t-59.5 -24.5t-21.5 -67.5q0 -44 21.5 -68t59.5 -24zM224 11q48 0 94.5 24t80.5 64v160h-178
q-59 0 -96.5 -33t-37.5 -91t38.5 -91t98.5 -33zM220 -11q-68 0 -113 38.5t-45 105.5q0 69 43.5 108t114.5 39h179v84q0 71 -39 108t-109 37q-110 0 -153 -103l-22 10q49 116 177 116q78 0 124.5 -42.5t46.5 -121.5v-280q0 -42 22 -61t61 -6l1 -23q-44 -13 -73 9.5t-30 69.5
v3q-37 -41 -86 -66t-99 -25z" />
    <glyph glyph-name="ae" unicode="&#xe6;" horiz-adv-x="847" 
d="M606 509q-83 0 -130 -55.5t-52 -165.5h346v12q-1 101 -46.5 155t-117.5 54zM225 11q101 0 195 110q-22 61 -22 140h-177q-60 0 -97.5 -33t-37.5 -93q0 -58 39 -91t100 -33zM614 -9q-133 0 -185 110q-100 -112 -209 -112q-68 0 -113 38.5t-45 105.5q0 70 43.5 110.5
t115.5 40.5h177v81q0 70 -39 107t-108 37q-110 0 -153 -104l-22 12q49 115 177 115q68 0 112.5 -33t55.5 -94q48 127 186 127q82 0 135.5 -61.5t53.5 -172.5v-33h-372v-2q0 -124 49 -186.5t141 -62.5q95 0 149 74l17 -16q-56 -81 -166 -81z" />
    <glyph glyph-name="ccedilla" unicode="&#xe7;" horiz-adv-x="516" 
d="M272 -182q-68 0 -101 52l15 12q29 -46 86 -46q35 0 58 14.5t23 42.5q0 54 -93 63v35q-90 6 -141 74t-51 198q0 132 56.5 200.5t154.5 68.5q139 0 182 -144l-24 -8q-35 128 -159 128q-87 0 -136 -61.5t-49 -183.5q0 -125 49 -187t136 -62q125 0 159 128l24 -8
q-41 -143 -182 -143v-23q45 -5 70.5 -24t25.5 -51q0 -36 -29.5 -55.5t-73.5 -19.5z" />
    <glyph glyph-name="egrave" unicode="&#xe8;" horiz-adv-x="522" 
d="M287 607q-63 69 -115 150h33q50 -85 102 -150h-20zM278 509q-84 0 -131.5 -55t-52.5 -166h351v12q0 101 -46.5 155t-120.5 54zM455 72q-56 -81 -169 -81q-104 0 -161 68.5t-57 203.5q0 133 56 201t154 68q84 0 138.5 -61.5t54.5 -172.5v-33h-377l-1 -2q0 -124 50 -186.5
t143 -62.5q97 0 152 74z" />
    <glyph glyph-name="eacute" unicode="&#xe9;" horiz-adv-x="522" 
d="M214 607q62 79 101 150h37q-49 -74 -115 -150h-23zM278 509q-84 0 -131.5 -55t-52.5 -166h351v12q0 101 -46.5 155t-120.5 54zM455 72q-56 -81 -169 -81q-104 0 -161 68.5t-57 203.5q0 133 56 201t154 68q84 0 138.5 -61.5t54.5 -172.5v-33h-377l-1 -2q0 -124 50 -186.5
t143 -62.5q97 0 152 74z" />
    <glyph glyph-name="ecircumflex" unicode="&#xea;" horiz-adv-x="522" 
d="M114 618l-12 14q84 65 148 129h20q74 -71 151 -129l-12 -14q-74 51 -149 120q-70 -67 -146 -120zM278 509q-84 0 -131.5 -55t-52.5 -166h351v12q0 101 -46.5 155t-120.5 54zM455 72q-56 -81 -169 -81q-104 0 -161 68.5t-57 203.5q0 133 56 201t154 68q84 0 138.5 -61.5
t54.5 -172.5v-33h-377l-1 -2q0 -124 50 -186.5t143 -62.5q97 0 152 74z" />
    <glyph glyph-name="edieresis" unicode="&#xeb;" horiz-adv-x="522" 
d="M322 649q-22 0 -22 23t22 23q25 0 25 -23q0 -10 -7 -16.5t-18 -6.5zM200 649q-23 0 -23 23t23 23q24 0 24 -23q0 -10 -7 -16.5t-17 -6.5zM278 509q-84 0 -131.5 -55t-52.5 -166h351v12q0 101 -46.5 155t-120.5 54zM455 72q-56 -81 -169 -81q-104 0 -161 68.5t-57 203.5
q0 133 56 201t154 68q84 0 138.5 -61.5t54.5 -172.5v-33h-377l-1 -2q0 -124 50 -186.5t143 -62.5q97 0 152 74z" />
    <glyph glyph-name="igrave" unicode="&#xec;" horiz-adv-x="266" 
d="M154 607q-63 71 -114 150h33q50 -85 102 -150h-21zM99 0v522h25v-522h-25z" />
    <glyph glyph-name="iacute" unicode="&#xed;" horiz-adv-x="266" 
d="M99 607q63 82 100 150h37q-53 -81 -115 -150h-22zM99 0v522h25v-522h-25z" />
    <glyph glyph-name="icircumflex" unicode="&#xee;" horiz-adv-x="266" 
d="M-18 618l-12 14q84 65 148 129h20q74 -71 151 -129l-13 -14q-74 52 -148 120q-70 -67 -146 -120zM99 0v522h25v-522h-25z" />
    <glyph glyph-name="idieresis" unicode="&#xef;" horiz-adv-x="266" 
d="M195 649q-22 0 -22 23t22 23q25 0 25 -23q0 -10 -7 -16.5t-18 -6.5zM73 649q-23 0 -23 23t23 23q24 0 24 -23q0 -10 -7 -16.5t-17 -6.5zM99 0v522h25v-522h-25z" />
    <glyph glyph-name="eth" unicode="&#xf0;" horiz-adv-x="585" 
d="M286 -11q-99 0 -153.5 62t-54.5 170q0 100 54.5 157.5t146.5 57.5q73 0 123.5 -32t67.5 -88v69q0 139 -68 216l-167 -81v21l154 74q-68 65 -186 72l5 21q134 -11 202 -82l103 50v-22l-90 -43q69 -85 70 -246v-120q0 -120 -54 -188t-153 -68zM286 12q88 0 134.5 60
t46.5 162q0 87 -47.5 133.5t-133.5 46.5q-87 0 -134.5 -50t-47.5 -143q0 -98 46.5 -153.5t135.5 -55.5z" />
    <glyph glyph-name="ntilde" unicode="&#xf1;" 
d="M367 622q-46 0 -80 66q-12 21 -19 31.5t-21 21t-29 10.5q-28 0 -44 -30t-16 -80v-12h-23v13q0 58 23 94t63 36q46 0 80 -66q33 -63 68 -63q28 0 43.5 29.5t15.5 80.5v12h22v-13q0 -59 -21.5 -94.5t-61.5 -35.5zM124 0h-25v522h25v-125q81 135 191 135q70 0 110 -47
t40 -128v-357h-26v352q0 73 -34 114t-96 41q-108 0 -185 -136v-371z" />
    <glyph glyph-name="ograve" unicode="&#xf2;" horiz-adv-x="541" 
d="M297 607q-63 69 -115 150h33q50 -85 102 -150h-20zM270 -9q-94 0 -148 68t-54 204q0 132 54.5 200.5t148.5 68.5q92 0 147 -69t55 -201q0 -135 -54.5 -203t-148.5 -68zM270 14q84 0 130.5 61.5t46.5 186.5q0 122 -47 184t-129 62q-83 0 -130.5 -62t-47.5 -183
q0 -125 47 -187t130 -62z" />
    <glyph glyph-name="oacute" unicode="&#xf3;" horiz-adv-x="541" 
d="M221 607q63 82 100 150h37q-53 -81 -115 -150h-22zM270 -9q-94 0 -148 68t-54 204q0 132 54.5 200.5t148.5 68.5q92 0 147 -69t55 -201q0 -135 -54.5 -203t-148.5 -68zM270 14q84 0 130.5 61.5t46.5 186.5q0 122 -47 184t-129 62q-83 0 -130.5 -62t-47.5 -183
q0 -125 47 -187t130 -62z" />
    <glyph glyph-name="ocircumflex" unicode="&#xf4;" horiz-adv-x="541" 
d="M124 618l-12 14q79 60 148 129h20q74 -71 151 -129l-12 -14q-74 51 -149 120q-65 -63 -146 -120zM270 -9q-94 0 -148 68t-54 204q0 132 54.5 200.5t148.5 68.5q92 0 147 -69t55 -201q0 -135 -54.5 -203t-148.5 -68zM270 14q84 0 130.5 61.5t46.5 186.5q0 122 -47 184
t-129 62q-83 0 -130.5 -62t-47.5 -183q0 -125 47 -187t130 -62z" />
    <glyph glyph-name="otilde" unicode="&#xf5;" horiz-adv-x="541" 
d="M346 622q-27 0 -45.5 17t-35.5 49q-11 20 -18.5 31.5t-21 21.5t-28.5 10q-28 0 -44.5 -30.5t-16.5 -79.5v-12h-22v13q0 58 22.5 94t62.5 36q28 0 46 -17t34 -49q16 -30 31.5 -46.5t37.5 -16.5q28 0 43.5 29.5t15.5 80.5v12h22v-13q0 -59 -22 -94.5t-61 -35.5zM270 -9
q-94 0 -148 68t-54 204q0 132 54.5 200.5t148.5 68.5q92 0 147 -69t55 -201q0 -135 -54.5 -203t-148.5 -68zM270 14q84 0 130.5 61.5t46.5 186.5q0 122 -47 184t-129 62q-83 0 -130.5 -62t-47.5 -183q0 -125 47 -187t130 -62z" />
    <glyph glyph-name="odieresis" unicode="&#xf6;" horiz-adv-x="541" 
d="M332 649q-22 0 -22 23t22 23q25 0 25 -23t-25 -23zM210 649q-23 0 -23 23t23 23q24 0 24 -23t-24 -23zM270 -9q-94 0 -148 68t-54 204q0 132 54.5 200.5t148.5 68.5q92 0 147 -69t55 -201q0 -135 -54.5 -203t-148.5 -68zM270 14q84 0 130.5 61.5t46.5 186.5
q0 122 -47 184t-129 62q-83 0 -130.5 -62t-47.5 -183q0 -125 47 -187t130 -62z" />
    <glyph glyph-name="divide" unicode="&#xf7;" horiz-adv-x="626" 
d="M313 499q-24 0 -24 26q0 28 24 28q25 0 25 -28q0 -26 -25 -26zM101 294v22h424v-22h-424zM313 61q-24 0 -24 26q0 27 24 27q25 0 25 -28q0 -25 -25 -25z" />
    <glyph glyph-name="oslash" unicode="&#xf8;" horiz-adv-x="541" 
d="M93 263q0 -155 74 -215l197 433q-39 27 -93 27q-83 0 -130.5 -62t-47.5 -183zM270 14q84 0 130.5 61.5t46.5 186.5q0 144 -67 206l-197 -432q37 -22 87 -22zM270 -9q-55 0 -97 24l-46 -102h-22l51 113q-88 64 -88 237q0 132 54.5 200.5t148.5 68.5q58 0 104 -29l49 107
h22l-55 -119q82 -69 82 -229q0 -135 -54.5 -203t-148.5 -68z" />
    <glyph glyph-name="ugrave" unicode="&#xf9;" 
d="M280 607q-63 71 -114 150h33q50 -85 102 -150h-21zM438 522h25v-522h-25v125q-81 -134 -191 -134q-70 0 -110 46.5t-40 128.5v356h26v-351q0 -74 34 -115t96 -41q107 0 185 136v371z" />
    <glyph glyph-name="uacute" unicode="&#xfa;" 
d="M239 607q63 82 100 150h37q-53 -81 -115 -150h-22zM438 522h25v-522h-25v125q-81 -134 -191 -134q-70 0 -110 46.5t-40 128.5v356h26v-351q0 -74 34 -115t96 -41q107 0 185 136v371z" />
    <glyph glyph-name="ucircumflex" unicode="&#xfb;" 
d="M130 618l-12 14q85 64 148 129h21q71 -69 150 -129l-12 -14q-74 51 -149 120q-65 -63 -146 -120zM438 522h25v-522h-25v125q-81 -134 -191 -134q-70 0 -110 46.5t-40 128.5v356h26v-351q0 -74 34 -115t96 -41q107 0 185 136v371z" />
    <glyph glyph-name="udieresis" unicode="&#xfc;" 
d="M348 649q-23 0 -23 23t23 23q24 0 24 -23t-24 -23zM226 649q-24 0 -24 23t24 23q23 0 23 -23q0 -10 -6.5 -16.5t-16.5 -6.5zM438 522h25v-522h-25v125q-81 -134 -191 -134q-70 0 -110 46.5t-40 128.5v356h26v-351q0 -74 34 -115t96 -41q107 0 185 136v371z" />
    <glyph glyph-name="yacute" unicode="&#xfd;" horiz-adv-x="490" 
d="M184 607q57 73 101 150h36q-48 -75 -115 -150h-22zM101 -181q-33 0 -58 8l5 24q32 -10 54 -10q42 0 66 25t44 79l21 56l-194 520l26 2l181 -492l181 492l26 -2l-221 -588q-23 -60 -53.5 -87t-77.5 -27z" />
    <glyph glyph-name="thorn" unicode="&#xfe;" horiz-adv-x="554" 
d="M264 14q196 0 196 260q0 115 -45 173.5t-119 58.5q-53 0 -94 -30t-78 -89v-332q61 -41 140 -41zM267 -9q-80 0 -143 41v-206h-25v889h25v-301q76 116 178 116q81 0 132.5 -66t51.5 -190q0 -148 -59.5 -215.5t-159.5 -67.5z" />
    <glyph glyph-name="ydieresis" unicode="&#xff;" horiz-adv-x="490" 
d="M306 649q-22 0 -22 23t22 23q24 0 24 -23t-24 -23zM184 649q-23 0 -23 23t23 23t23 -23q0 -10 -6.5 -16.5t-16.5 -6.5zM101 -181q-33 0 -58 8l5 24q32 -10 54 -10q42 0 66 25t44 79l21 56l-194 520l26 2l181 -492l181 492l26 -2l-221 -588q-23 -60 -53.5 -87t-77.5 -27z
" />
    <glyph glyph-name="Amacron" unicode="&#x100;" horiz-adv-x="602" 
d="M166 841v22h272v-22h-272zM534 -1l-82 235h-302l-82 -235l-25 2l247 697h23l247 -697zM444 256l-143 413l-143 -413h286z" />
    <glyph glyph-name="amacron" unicode="&#x101;" horiz-adv-x="534" 
d="M127 669v21h272v-21h-272zM224 11q48 0 94.5 24t80.5 64v160h-178q-59 0 -96.5 -33t-37.5 -91t38.5 -91t98.5 -33zM220 -11q-68 0 -113 38.5t-45 105.5q0 69 43.5 108t114.5 39h179v84q0 71 -39 108t-109 37q-110 0 -153 -103l-22 10q49 116 177 116q78 0 124.5 -42.5
t46.5 -121.5v-280q0 -42 22 -61t61 -6l1 -23q-44 -13 -73 9.5t-30 69.5v3q-37 -41 -86 -66t-99 -25z" />
    <glyph glyph-name="Abreve" unicode="&#x102;" horiz-adv-x="602" 
d="M302 797q-68 0 -107.5 33.5t-40.5 103.5h23q1 -118 125 -118t125 118h22q-1 -70 -40 -103.5t-107 -33.5zM534 -1l-82 235h-302l-82 -235l-25 2l247 697h23l247 -697zM444 256l-143 413l-143 -413h286z" />
    <glyph glyph-name="abreve" unicode="&#x103;" horiz-adv-x="534" 
d="M263 623q-68 0 -107 34t-40 103h22q1 -118 125 -118t125 118h23q-1 -69 -40.5 -103t-107.5 -34zM224 11q48 0 94.5 24t80.5 64v160h-178q-59 0 -96.5 -33t-37.5 -91t38.5 -91t98.5 -33zM220 -11q-68 0 -113 38.5t-45 105.5q0 69 43.5 108t114.5 39h179v84q0 71 -39 108
t-109 37q-110 0 -153 -103l-22 10q49 116 177 116q78 0 124.5 -42.5t46.5 -121.5v-280q0 -42 22 -61t61 -6l1 -23q-44 -13 -73 9.5t-30 69.5v3q-37 -41 -86 -66t-99 -25z" />
    <glyph glyph-name="Aogonek" unicode="&#x104;" horiz-adv-x="602" 
d="M554 -182q-44 0 -73 22.5t-29 58.5q0 34 22 64.5t55 47.5l-77 223h-302l-82 -235l-25 2l247 697h23l247 -697l-25 -2q-62 -39 -62 -95q0 -30 23.5 -48t60.5 -18q33 0 56 9l2 -21q-30 -8 -61 -8zM444 256l-143 413l-143 -413h286z" />
    <glyph glyph-name="aogonek" unicode="&#x105;" horiz-adv-x="534" 
d="M224 11q48 0 94.5 24t80.5 64v160h-178q-59 0 -96.5 -33t-37.5 -91t38.5 -91t98.5 -33zM525 -174q-30 -8 -61 -8q-43 0 -72 22.5t-29 58.5q0 32 20.5 62t50.5 47q-29 23 -29 69v3q-37 -41 -86 -66t-99 -25q-68 0 -113 38.5t-45 105.5q0 69 43.5 108t114.5 39h179v84
q0 71 -39 108t-109 37q-110 0 -153 -103l-22 10q49 116 177 116q78 0 124.5 -42.5t46.5 -121.5v-280q0 -42 22 -61t61 -6l1 -23q-36 -11 -61 2q-64 -40 -64 -96q0 -30 23.5 -48t60.5 -18q33 0 56 9z" />
    <glyph glyph-name="Cacute" unicode="&#x106;" horiz-adv-x="628" 
d="M271 780q58 76 101 151h37q-47 -71 -115 -151h-23zM324 -9q-118 0 -188 91t-70 272q0 174 70.5 262.5t188.5 88.5q91 0 150.5 -48t79.5 -134l-25 -6q-39 165 -205 165q-108 0 -171 -82t-63 -246q0 -172 62.5 -256t170.5 -84q84 0 137 41t71 115l24 -6
q-18 -80 -78.5 -126.5t-153.5 -46.5z" />
    <glyph glyph-name="cacute" unicode="&#x107;" horiz-adv-x="516" 
d="M229 607q63 82 100 150h37q-53 -81 -115 -150h-22zM278 -9q-98 0 -154 68t-56 204q0 132 56.5 200.5t154.5 68.5q139 0 182 -144l-24 -8q-35 128 -159 128q-87 0 -136 -61.5t-49 -183.5q0 -125 49 -187t136 -62q125 0 159 128l24 -8q-41 -143 -183 -143z" />
    <glyph glyph-name="Ccircumflex" unicode="&#x108;" horiz-adv-x="628" 
d="M185 792l-12 14q79 60 148 129h20q74 -71 151 -129l-12 -14q-74 51 -149 120q-65 -63 -146 -120zM324 -9q-118 0 -188 91t-70 272q0 174 70.5 262.5t188.5 88.5q91 0 150.5 -48t79.5 -134l-25 -6q-39 165 -205 165q-108 0 -171 -82t-63 -246q0 -172 62.5 -256t170.5 -84
q84 0 137 41t71 115l24 -6q-18 -80 -78.5 -126.5t-153.5 -46.5z" />
    <glyph glyph-name="ccircumflex" unicode="&#x109;" horiz-adv-x="516" 
d="M120 618l-12 14q79 60 148 129h20q74 -71 151 -129l-12 -14q-74 51 -149 120q-65 -63 -146 -120zM278 -9q-98 0 -154 68t-56 204q0 132 56.5 200.5t154.5 68.5q139 0 182 -144l-24 -8q-35 128 -159 128q-87 0 -136 -61.5t-49 -183.5q0 -125 49 -187t136 -62
q125 0 159 128l24 -8q-41 -143 -183 -143z" />
    <glyph glyph-name="Cdotaccent" unicode="&#x10a;" horiz-adv-x="628" 
d="M332 823q-23 0 -23 23t23 23q24 0 24 -23t-24 -23zM324 -9q-118 0 -188 91t-70 272q0 174 70.5 262.5t188.5 88.5q91 0 150.5 -48t79.5 -134l-25 -6q-39 165 -205 165q-108 0 -171 -82t-63 -246q0 -172 62.5 -256t170.5 -84q84 0 137 41t71 115l24 -6
q-18 -80 -78.5 -126.5t-153.5 -46.5z" />
    <glyph glyph-name="cdotaccent" unicode="&#x10b;" horiz-adv-x="516" 
d="M257 649q-10 0 -16.5 6.5t-6.5 16.5q0 23 23 23t23 -23t-23 -23zM278 -9q-98 0 -154 68t-56 204q0 132 56.5 200.5t154.5 68.5q139 0 182 -144l-24 -8q-35 128 -159 128q-87 0 -136 -61.5t-49 -183.5q0 -125 49 -187t136 -62q125 0 159 128l24 -8q-41 -143 -183 -143z
" />
    <glyph glyph-name="Ccaron" unicode="&#x10c;" horiz-adv-x="628" 
d="M323 788q-72 69 -150 129l12 14q91 -68 148 -120q62 58 147 120l12 -14q-87 -67 -149 -129h-20zM324 -9q-118 0 -188 91t-70 272q0 174 70.5 262.5t188.5 88.5q91 0 150.5 -48t79.5 -134l-25 -6q-39 165 -205 165q-108 0 -171 -82t-63 -246q0 -172 62.5 -256t170.5 -84
q84 0 137 41t71 115l24 -6q-18 -80 -78.5 -126.5t-153.5 -46.5z" />
    <glyph glyph-name="ccaron" unicode="&#x10d;" horiz-adv-x="516" 
d="M248 614q-58 57 -150 129l12 14q75 -54 148 -120q67 63 146 120l13 -14q-92 -71 -149 -129h-20zM278 -9q-98 0 -154 68t-56 204q0 132 56.5 200.5t154.5 68.5q139 0 182 -144l-24 -8q-35 128 -159 128q-87 0 -136 -61.5t-49 -183.5q0 -125 49 -187t136 -62q125 0 159 128
l24 -8q-41 -143 -183 -143z" />
    <glyph glyph-name="Dcaron" unicode="&#x10e;" horiz-adv-x="653" 
d="M323 788q-72 69 -150 129l12 14q91 -68 148 -120q62 58 147 120l12 -14q-87 -67 -149 -129h-20zM99 0v696h203q129 0 207 -83.5t78 -260.5q0 -183 -78 -267.5t-208 -84.5h-202zM124 23h177q120 0 190.5 78t70.5 251q0 166 -70.5 244t-190.5 78h-177v-651z" />
    <glyph glyph-name="dcaron" unicode="&#x10f;" horiz-adv-x="554" 
d="M534 586q29 75 38 143h29q-13 -77 -48 -143h-19zM290 508q-196 0 -196 -260q0 -114 45 -173t120 -59q96 0 171 119v332q-62 41 -140 41zM287 532q80 0 143 -41v225h25v-716h-24v109q-77 -117 -178 -117q-82 0 -133.5 66t-51.5 190q0 148 59.5 216t159.5 68z" />
    <glyph glyph-name="Dcroat" unicode="&#x110;" horiz-adv-x="661" 
d="M308 0h-202v366h-96v24h96v306h203q130 0 208 -83.5t78 -260.5q0 -183 -78.5 -267.5t-208.5 -84.5zM131 23h177q120 0 190.5 78t70.5 251q0 166 -70.5 244t-190.5 78h-177v-284h196v-24h-196v-343z" />
    <glyph glyph-name="dcroat" unicode="&#x111;" horiz-adv-x="554" 
d="M290 488q-197 0 -197 -250q0 -110 45.5 -166t119.5 -56q97 0 172 119v312q-62 41 -140 41zM431 109q-77 -117 -179 -117q-82 0 -133 63.5t-51 182.5q0 142 59.5 207.5t159.5 65.5q79 0 143 -40v127h-187v21h187v97h25v-97h104v-21h-104v-598h-24v109z" />
    <glyph glyph-name="Emacron" unicode="&#x112;" horiz-adv-x="562" 
d="M153 841v22h273v-22h-273zM99 0v696h410v-22h-385v-282h346v-22h-346v-348h385v-22h-410z" />
    <glyph glyph-name="emacron" unicode="&#x113;" horiz-adv-x="522" 
d="M125 668v21h272v-21h-272zM278 509q-84 0 -131.5 -55t-52.5 -166h351v12q0 101 -46.5 155t-120.5 54zM455 72q-56 -81 -169 -81q-104 0 -161 68.5t-57 203.5q0 133 56 201t154 68q84 0 138.5 -61.5t54.5 -172.5v-33h-377l-1 -2q0 -124 50 -186.5t143 -62.5q97 0 152 74z
" />
    <glyph glyph-name="Ebreve" unicode="&#x114;" horiz-adv-x="562" 
d="M290 797q-68 0 -107.5 33.5t-40.5 103.5h23q1 -118 125 -118t125 118h22q-1 -70 -40 -103.5t-107 -33.5zM99 0v696h410v-22h-385v-282h346v-22h-346v-348h385v-22h-410z" />
    <glyph glyph-name="ebreve" unicode="&#x115;" horiz-adv-x="522" 
d="M261 623q-68 0 -107 34t-40 103h22q1 -118 125 -118t125 118h23q-1 -69 -40.5 -103t-107.5 -34zM278 509q-84 0 -131.5 -55t-52.5 -166h351v12q0 101 -46.5 155t-120.5 54zM455 72q-56 -81 -169 -81q-104 0 -161 68.5t-57 203.5q0 133 56 201t154 68q84 0 138.5 -61.5
t54.5 -172.5v-33h-377l-1 -2q0 -124 50 -186.5t143 -62.5q97 0 152 74z" />
    <glyph glyph-name="Edotaccent" unicode="&#x116;" horiz-adv-x="562" 
d="M290 823q-24 0 -24 23t24 23q23 0 23 -23t-23 -23zM99 0v696h410v-22h-385v-282h346v-22h-346v-348h385v-22h-410z" />
    <glyph glyph-name="edotaccent" unicode="&#x117;" horiz-adv-x="522" 
d="M261 649q-10 0 -16.5 6.5t-6.5 16.5q0 23 23 23q24 0 24 -23t-24 -23zM278 509q-84 0 -131.5 -55t-52.5 -166h351v12q0 101 -46.5 155t-120.5 54zM455 72q-56 -81 -169 -81q-104 0 -161 68.5t-57 203.5q0 133 56 201t154 68q84 0 138.5 -61.5t54.5 -172.5v-33h-377l-1 -2
q0 -124 50 -186.5t143 -62.5q97 0 152 74z" />
    <glyph glyph-name="Eogonek" unicode="&#x118;" horiz-adv-x="562" 
d="M507 -174q-30 -8 -61 -8q-44 0 -72.5 22.5t-28.5 58.5q0 60 59 101h-305v696h410v-22h-385v-282h346v-22h-346v-348h385v-22h-81q-63 -39 -63 -96q0 -30 23.5 -48t60.5 -18q33 0 56 9z" />
    <glyph glyph-name="eogonek" unicode="&#x119;" horiz-adv-x="522" 
d="M278 509q-84 0 -131.5 -55t-52.5 -166h351v12q0 101 -46.5 155t-120.5 54zM430 -174q-30 -8 -61 -8q-44 0 -73 22.5t-29 58.5q0 53 50 94q-20 -2 -31 -2q-104 0 -161 68.5t-57 203.5q0 133 56 201t154 68q84 0 138.5 -61.5t54.5 -172.5v-33h-377l-1 -2q0 -124 50 -186.5
t143 -62.5q97 0 152 74l17 -16q-38 -54 -104 -72q-63 -39 -63 -96q0 -30 23.5 -48t60.5 -18q33 0 56 9z" />
    <glyph glyph-name="Ecaron" unicode="&#x11a;" horiz-adv-x="562" 
d="M280 788q-65 64 -150 129l12 14q90 -67 149 -120q59 57 146 120l12 -14q-82 -63 -148 -129h-21zM99 0v696h410v-22h-385v-282h346v-22h-346v-348h385v-22h-410z" />
    <glyph glyph-name="ecaron" unicode="&#x11b;" horiz-adv-x="522" 
d="M250 614q-58 57 -150 129l12 14q75 -54 148 -120q69 65 147 120l12 -14q-92 -71 -149 -129h-20zM278 509q-84 0 -131.5 -55t-52.5 -166h351v12q0 101 -46.5 155t-120.5 54zM455 72q-56 -81 -169 -81q-104 0 -161 68.5t-57 203.5q0 133 56 201t154 68q84 0 138.5 -61.5
t54.5 -172.5v-33h-377l-1 -2q0 -124 50 -186.5t143 -62.5q97 0 152 74z" />
    <glyph glyph-name="Gcircumflex" unicode="&#x11c;" horiz-adv-x="644" 
d="M182 792l-12 14q79 60 148 129h20q74 -71 151 -129l-12 -14q-74 51 -149 120q-65 -63 -146 -120zM579 285q0 -294 -250 -294q-123 0 -193 90.5t-70 274.5q0 175 70 262t193 87q83 0 141.5 -38t81.5 -105l-25 -7q-21 61 -72 94t-126 33q-112 0 -175 -81t-63 -245
q0 -175 62.5 -258.5t175.5 -83.5q225 0 225 272v35h-234v24h259v-60z" />
    <glyph glyph-name="gcircumflex" unicode="&#x11d;" horiz-adv-x="553" 
d="M139 618l-12 14q85 64 148 129h21q70 -69 150 -129l-12 -14q-76 53 -148 120q-68 -64 -147 -120zM270 239q68 0 110 35.5t42 98.5q0 61 -41.5 96t-107.5 35q-65 0 -106 -35t-41 -96q0 -62 40.5 -98t103.5 -36zM517 -38q0 -69 -62 -109.5t-177 -40.5q-107 0 -160.5 36
t-53.5 92q0 81 95 121q-71 22 -71 88q0 35 20 62t54 40q-60 43 -60 122q0 68 48 110.5t123 42.5q25 0 44 -4h182v-21q-69 1 -141 8q41 -18 64 -53.5t23 -82.5q0 -70 -48.5 -113t-126.5 -43q-51 0 -94 24q-65 -24 -65 -87q0 -35 24.5 -55t71.5 -20h176q64 0 99 -30.5
t35 -86.5zM282 -167q103 0 157.5 34t54.5 93q0 46 -29 70.5t-82 24.5h-177q-9 0 -27 2q-91 -38 -91 -113q0 -49 48 -80t146 -31z" />
    <glyph glyph-name="Gbreve" unicode="&#x11e;" horiz-adv-x="644" 
d="M329 797q-68 0 -107 33.5t-40 103.5h22q1 -118 125 -118t125 118h23q-1 -70 -40.5 -103.5t-107.5 -33.5zM579 285q0 -294 -250 -294q-123 0 -193 90.5t-70 274.5q0 175 70 262t193 87q83 0 141.5 -38t81.5 -105l-25 -7q-21 61 -72 94t-126 33q-112 0 -175 -81t-63 -245
q0 -175 62.5 -258.5t175.5 -83.5q225 0 225 272v35h-234v24h259v-60z" />
    <glyph glyph-name="gbreve" unicode="&#x11f;" horiz-adv-x="553" 
d="M287 623q-68 0 -107.5 34t-40.5 103h23q1 -118 125 -118t125 118h22q-1 -69 -40 -103t-107 -34zM270 239q68 0 110 35.5t42 98.5q0 61 -41.5 96t-107.5 35q-65 0 -106 -35t-41 -96q0 -62 40.5 -98t103.5 -36zM517 -38q0 -69 -62 -109.5t-177 -40.5q-107 0 -160.5 36
t-53.5 92q0 81 95 121q-71 22 -71 88q0 35 20 62t54 40q-60 43 -60 122q0 68 48 110.5t123 42.5q25 0 44 -4h182v-21q-69 1 -141 8q41 -18 64 -53.5t23 -82.5q0 -70 -48.5 -113t-126.5 -43q-51 0 -94 24q-65 -24 -65 -87q0 -35 24.5 -55t71.5 -20h176q64 0 99 -30.5
t35 -86.5zM282 -167q103 0 157.5 34t54.5 93q0 46 -29 70.5t-82 24.5h-177q-9 0 -27 2q-91 -38 -91 -113q0 -49 48 -80t146 -31z" />
    <glyph glyph-name="Gdotaccent" unicode="&#x120;" horiz-adv-x="644" 
d="M329 823q-23 0 -23 23t23 23q24 0 24 -23t-24 -23zM579 285q0 -294 -250 -294q-123 0 -193 90.5t-70 274.5q0 175 70 262t193 87q83 0 141.5 -38t81.5 -105l-25 -7q-21 61 -72 94t-126 33q-112 0 -175 -81t-63 -245q0 -175 62.5 -258.5t175.5 -83.5q225 0 225 272v35
h-234v24h259v-60z" />
    <glyph glyph-name="gdotaccent" unicode="&#x121;" horiz-adv-x="553" 
d="M287 649q-24 0 -24 23t24 23q23 0 23 -23t-23 -23zM270 239q68 0 110 35.5t42 98.5q0 61 -41.5 96t-107.5 35q-65 0 -106 -35t-41 -96q0 -62 40.5 -98t103.5 -36zM517 -38q0 -69 -62 -109.5t-177 -40.5q-107 0 -160.5 36t-53.5 92q0 81 95 121q-71 22 -71 88q0 35 20 62
t54 40q-60 43 -60 122q0 68 48 110.5t123 42.5q25 0 44 -4h182v-21q-69 1 -141 8q41 -18 64 -53.5t23 -82.5q0 -70 -48.5 -113t-126.5 -43q-51 0 -94 24q-65 -24 -65 -87q0 -35 24.5 -55t71.5 -20h176q64 0 99 -30.5t35 -86.5zM282 -167q103 0 157.5 34t54.5 93
q0 46 -29 70.5t-82 24.5h-177q-9 0 -27 2q-91 -38 -91 -113q0 -49 48 -80t146 -31z" />
    <glyph glyph-name="Gcommaaccent" unicode="&#x122;" horiz-adv-x="644" 
d="M579 285q0 -294 -250 -294q-123 0 -193 90.5t-70 274.5q0 175 70 262t193 87q83 0 141.5 -38t81.5 -105l-25 -7q-21 61 -72 94t-126 33q-112 0 -175 -81t-63 -245q0 -175 62.5 -258.5t175.5 -83.5q225 0 225 272v35h-234v24h259v-60zM284 -211q31 68 44 132h36
q-17 -60 -60 -132h-20z" />
    <glyph glyph-name="gcommaaccent" unicode="&#x123;" horiz-adv-x="553" 
d="M280 613q19 61 60 131h21q-31 -64 -45 -131h-36zM270 239q68 0 110 35.5t42 98.5q0 61 -41.5 96t-107.5 35q-65 0 -106 -35t-41 -96q0 -62 40.5 -98t103.5 -36zM517 -38q0 -69 -62 -109.5t-177 -40.5q-107 0 -160.5 36t-53.5 92q0 81 95 121q-71 22 -71 88q0 35 20 62
t54 40q-60 43 -60 122q0 68 48 110.5t123 42.5q25 0 44 -4h182v-21q-69 1 -141 8q41 -18 64 -53.5t23 -82.5q0 -70 -48.5 -113t-126.5 -43q-51 0 -94 24q-65 -24 -65 -87q0 -35 24.5 -55t71.5 -20h176q64 0 99 -30.5t35 -86.5zM282 -167q103 0 157.5 34t54.5 93
q0 46 -29 70.5t-82 24.5h-177q-9 0 -27 2q-91 -38 -91 -113q0 -49 48 -80t146 -31z" />
    <glyph glyph-name="Hcircumflex" unicode="&#x124;" horiz-adv-x="633" 
d="M170 792l-12 14q84 65 148 129h20q74 -71 151 -129l-13 -14q-74 52 -148 120q-70 -67 -146 -120zM99 0v696h25v-304h385v304h26v-696h-26v370h-385v-369z" />
    <glyph glyph-name="hcircumflex" unicode="&#x125;" 
d="M-30 792l-13 14q83 63 149 129h20q72 -69 150 -129l-12 -14q-70 48 -148 120q-66 -63 -146 -120zM124 0h-25v716h25v-319q81 135 191 135q70 0 109.5 -47t39.5 -128v-357h-25v352q0 73 -34.5 114t-95.5 41q-107 0 -185 -136v-371z" />
    <glyph glyph-name="Hbar" unicode="&#x126;" horiz-adv-x="633" 
d="M124 349h385v181h-385v-181zM608 530h-73v-530h-26v326h-385v-325l-25 -1v530h-74v24h74v142h25v-142h385v142h26v-142h73v-24z" />
    <glyph glyph-name="hbar" unicode="&#x127;" 
d="M124 351v-351h-25v598h-87v21h87v97h25v-97h204v-21h-204v-221q81 134 191 134q70 0 109.5 -47t39.5 -128v-336h-25v331q0 74 -34.5 115t-95.5 41q-107 0 -185 -136z" />
    <glyph glyph-name="Itilde" unicode="&#x128;" horiz-adv-x="390" 
d="M271 796q-46 0 -80 66q-11 20 -18.5 31t-21 21.5t-28.5 10.5q-29 0 -45 -30t-16 -80v-12h-22v13q0 58 22.5 94t62.5 36q28 0 46 -17t34 -49q16 -30 31.5 -46.5t36.5 -16.5q28 0 43.5 29.5t15.5 80.5v12h23v-13q0 -59 -22 -94.5t-62 -35.5zM43 0v22h139v652h-139v22h304
v-22h-140v-652h140v-22h-304z" />
    <glyph glyph-name="itilde" unicode="&#x129;" horiz-adv-x="266" 
d="M208 622q-46 0 -80 66q-33 63 -68 63q-29 0 -45 -30t-16 -80v-12h-22v13q0 58 22.5 94t62.5 36q28 0 46 -17t34 -49q16 -30 31.5 -46.5t36.5 -16.5q28 0 43.5 29.5t15.5 80.5v12h23v-13q0 -59 -22 -94.5t-62 -35.5zM99 0v522h25v-522h-25z" />
    <glyph glyph-name="Imacron" unicode="&#x12a;" horiz-adv-x="390" 
d="M62 841v22h272v-22h-272zM43 0v22h139v652h-139v22h304v-22h-140v-652h140v-22h-304z" />
    <glyph glyph-name="imacron" unicode="&#x12b;" horiz-adv-x="266" 
d="M-2 668v21h272v-21h-272zM99 0v522h25v-522h-25z" />
    <glyph glyph-name="Ibreve" unicode="&#x12c;" horiz-adv-x="390" 
d="M192 797q-68 0 -107 33.5t-40 103.5h22q1 -118 125 -118t125 118h22q-1 -70 -40 -103.5t-107 -33.5zM43 0v22h139v652h-139v22h304v-22h-140v-652h140v-22h-304z" />
    <glyph glyph-name="ibreve" unicode="&#x12d;" horiz-adv-x="266" 
d="M133 623q-68 0 -107 34t-40 103h22q1 -118 125 -118t125 118h22q-1 -69 -40 -103t-107 -34zM99 0v522h25v-522h-25z" />
    <glyph glyph-name="Iogonek" unicode="&#x12e;" horiz-adv-x="390" 
d="M285 -174q-32 -8 -61 -8q-44 0 -73 22.5t-29 58.5q0 60 59 101h-138v22h139v652h-139v22h304v-22h-140v-652h140v-22h-141q-64 -40 -64 -96q0 -30 24 -48t61 -18q31 0 56 9z" />
    <glyph glyph-name="iogonek" unicode="&#x12f;" horiz-adv-x="266" 
d="M111 649q-23 0 -23 23q0 24 23 24q24 0 24 -24q0 -23 -24 -23zM192 -174q-30 -8 -61 -8q-44 0 -73 22.5t-29 58.5q0 32 20 60.5t50 46.5v516h25v-522h-11q-63 -39 -63 -96q0 -30 23.5 -48t60.5 -18q33 0 56 9z" />
    <glyph glyph-name="Idotaccent" unicode="&#x130;" horiz-adv-x="390" 
d="M196 823q-23 0 -23 23t23 23q24 0 24 -23t-24 -23zM43 0v22h139v652h-139v22h304v-22h-140v-652h140v-22h-304z" />
    <glyph glyph-name="dotlessi" unicode="&#x131;" horiz-adv-x="223" 
d="M99 0v522h25v-522h-25z" />
    <glyph glyph-name="IJ" unicode="&#x132;" horiz-adv-x="950" 
d="M43 0v22h139v652h-139v22h304v-22h-140v-652h140v-22h-304zM647 -9q-89 0 -145 58.5t-62 161.5l25 3q7 -94 55 -147t127 -53q83 0 130 58.5t47 148.5v475h26v-475q0 -100 -54.5 -165t-148.5 -65z" />
    <glyph glyph-name="ij" unicode="&#x133;" horiz-adv-x="451" 
d="M112 651q-10 0 -17 6.5t-7 16.5q0 23 24 23q23 0 23 -23t-23 -23zM323 650q-10 0 -16.5 6.5t-6.5 16.5q0 23 23 23q24 0 24 -23t-24 -23zM99 0v522h25v-522h-25zM220 -181q-35 0 -74 14l6 24q40 -14 65 -14q44 0 70 27.5t26 85.5v566h25v-566q0 -69 -33 -103t-85 -34z
" />
    <glyph glyph-name="Jcircumflex" unicode="&#x134;" horiz-adv-x="532" 
d="M258 792l-12 14q85 64 148 129h21q71 -69 150 -129l-12 -14q-74 51 -149 120q-65 -63 -146 -120zM236 -9q-89 0 -145 58.5t-63 161.5l26 3q6 -94 54 -147t128 -53q83 0 130 58.5t47 148.5v475h25v-475q0 -101 -54 -165.5t-148 -64.5z" />
    <glyph glyph-name="jcircumflex" unicode="&#x135;" horiz-adv-x="262" 
d="M-20 618l-13 14q83 63 149 129h20q74 -71 151 -129l-13 -14q-74 52 -148 120q-70 -67 -146 -120zM29 -181q-34 0 -73 14l6 24q40 -14 65 -14q44 0 70 27.5t26 85.5v566h25v-566q0 -69 -33 -103t-86 -34z" />
    <glyph glyph-name="Kcommaaccent" unicode="&#x136;" horiz-adv-x="574" 
d="M503 -1l-253 387l-126 -147v-239h-25v696h25v-425l366 426l26 -3l-249 -289l265 -404zM224 -211q31 68 44 132h36q-17 -60 -60 -132h-20z" />
    <glyph glyph-name="kcommaaccent" unicode="&#x137;" horiz-adv-x="493" 
d="M433 -1l-190 285l-119 -140v-144h-25v716h25v-540l296 347l26 -2l-187 -218l199 -302zM212 -211q31 66 45 132h36q-20 -64 -60 -132h-21z" />
    <glyph glyph-name="kgreenlandic" unicode="&#x138;" horiz-adv-x="493" 
d="M433 -1l-190 285l-119 -140v-144h-25v522h25v-346l296 347l26 -2l-187 -218l199 -302z" />
    <glyph glyph-name="Lacute" unicode="&#x139;" horiz-adv-x="489" 
d="M82 780q58 76 101 151h37q-47 -71 -115 -151h-23zM99 0v696h25v-673h333v-23h-358z" />
    <glyph glyph-name="lacute" unicode="&#x13a;" horiz-adv-x="223" 
d="M92 780q63 82 101 151h37q-47 -71 -115 -151h-23zM99 0v716h25v-716h-25z" />
    <glyph glyph-name="Lcommaaccent" unicode="&#x13b;" horiz-adv-x="489" 
d="M99 0v696h25v-673h333v-23h-358zM220 -211q31 68 44 132h36q-17 -60 -60 -132h-20z" />
    <glyph glyph-name="lcommaaccent" unicode="&#x13c;" horiz-adv-x="223" 
d="M99 0v716h25v-716h-25zM55 -211q30 67 45 132h35q-19 -65 -60 -132h-20z" />
    <glyph glyph-name="Lcaron" unicode="&#x13d;" horiz-adv-x="489" 
d="M350 554q29 76 38 142h29q-12 -74 -48 -142h-19zM99 0v696h25v-673h333v-23h-358z" />
    <glyph glyph-name="lcaron" unicode="&#x13e;" horiz-adv-x="232" 
d="M206 586q30 73 39 143h28q-12 -76 -47 -143h-20zM99 0v716h25v-716h-25z" />
    <glyph glyph-name="Ldot" unicode="&#x13f;" horiz-adv-x="489" 
d="M99 0v696h25v-673h333v-23h-358zM348 375q-24 0 -24 22q0 24 24 24q23 0 23 -24q0 -22 -23 -22z" />
    <glyph glyph-name="ldot" unicode="&#x140;" horiz-adv-x="229" 
d="M99 0v716h25v-716h-25zM248 300q-23 0 -23 22q0 24 23 24t23 -24q0 -22 -23 -22z" />
    <glyph glyph-name="Lslash" unicode="&#x141;" horiz-adv-x="503" 
d="M472 0h-359v335l-80 -28v23l80 29v337h25v-328l187 66v-23l-187 -67v-321h334v-23z" />
    <glyph glyph-name="lslash" unicode="&#x142;" horiz-adv-x="271" 
d="M122 0v325l-90 -32v24l90 33v366h28v-357l85 31v-23l-85 -32v-335h-28z" />
    <glyph glyph-name="Nacute" unicode="&#x143;" horiz-adv-x="642" 
d="M277 780q63 82 101 151h37q-47 -71 -115 -151h-23zM543 -2h-30l-390 660v-658h-24v696h30l390 -661v661h24v-698z" />
    <glyph glyph-name="nacute" unicode="&#x144;" 
d="M252 607q57 73 101 150h36q-48 -75 -115 -150h-22zM124 0h-25v522h25v-125q81 135 191 135q70 0 110 -47t40 -128v-357h-26v352q0 73 -34 114t-96 41q-108 0 -185 -136v-371z" />
    <glyph glyph-name="Ncommaaccent" unicode="&#x145;" horiz-adv-x="642" 
d="M543 -2h-30l-390 660v-658h-24v696h30l390 -661v661h24v-698zM258 -211q33 72 45 132h35q-19 -65 -60 -132h-20z" />
    <glyph glyph-name="ncommaaccent" unicode="&#x146;" 
d="M124 0h-25v522h25v-125q81 135 191 135q70 0 110 -47t40 -128v-357h-26v352q0 73 -34 114t-96 41q-108 0 -185 -136v-371zM211 -211q31 66 45 132h36q-20 -64 -60 -132h-21z" />
    <glyph glyph-name="Ncaron" unicode="&#x147;" horiz-adv-x="642" 
d="M329 788q-65 64 -150 129l12 14q91 -68 148 -120q62 58 147 120l12 -14q-88 -68 -148 -129h-21zM543 -2h-30l-390 660v-658h-24v696h30l390 -661v661h24v-698z" />
    <glyph glyph-name="ncaron" unicode="&#x148;" 
d="M273 614q-59 59 -150 129l12 14q80 -58 149 -120q66 63 146 120l12 -14q-93 -71 -148 -129h-21zM124 0h-25v522h25v-125q81 135 191 135q70 0 110 -47t40 -128v-357h-26v352q0 73 -34 114t-96 41q-108 0 -185 -136v-371z" />
    <glyph glyph-name="napostrophe" unicode="&#x149;" 
d="M16 607q57 73 101 150h36q-46 -72 -114 -150h-23zM124 0h-25v522h25v-125q81 135 191 135q70 0 110 -47t40 -128v-357h-26v352q0 73 -34 114t-96 41q-108 0 -185 -136v-371z" />
    <glyph glyph-name="Eng" unicode="&#x14a;" horiz-adv-x="632" 
d="M415 -181q-34 0 -74 14l7 24q39 -14 65 -14q43 0 69 27.5t26 85.5v563q0 77 -43.5 119.5t-122.5 42.5q-137 0 -218 -141v-540h-25v696h25v-131q84 140 225 140q86 0 135.5 -48.5t49.5 -132.5v-568q0 -69 -33 -103t-86 -34z" />
    <glyph glyph-name="eng" unicode="&#x14b;" 
d="M346 -181q-34 0 -74 14l6 24q40 -14 65 -14q44 0 70 27.5t26 85.5v396q0 73 -34.5 114t-95.5 41q-107 0 -185 -136v-371h-25v522h25v-125q81 135 191 135q70 0 109.5 -47t39.5 -128v-401q0 -69 -32.5 -103t-85.5 -34z" />
    <glyph glyph-name="Omacron" unicode="&#x14c;" horiz-adv-x="651" 
d="M189 841v22h272v-22h-272zM326 -9q-121 0 -190.5 88.5t-69.5 276.5q0 177 70.5 263t190.5 86q119 0 188.5 -85.5t69.5 -263.5q0 -189 -69 -277t-190 -88zM326 14q234 0 234 342q0 167 -62 246.5t-171 79.5q-110 0 -173 -79.5t-63 -246.5q0 -342 235 -342z" />
    <glyph glyph-name="omacron" unicode="&#x14d;" horiz-adv-x="541" 
d="M135 668v21h273v-21h-273zM270 -9q-94 0 -148 68t-54 204q0 132 54.5 200.5t148.5 68.5q92 0 147 -69t55 -201q0 -135 -54.5 -203t-148.5 -68zM270 14q84 0 130.5 61.5t46.5 186.5q0 122 -47 184t-129 62q-83 0 -130.5 -62t-47.5 -183q0 -125 47 -187t130 -62z" />
    <glyph glyph-name="Obreve" unicode="&#x14e;" horiz-adv-x="651" 
d="M325 797q-68 0 -107 33.5t-40 103.5h22q1 -118 125 -118t125 118h23q-1 -70 -40.5 -103.5t-107.5 -33.5zM326 -9q-121 0 -190.5 88.5t-69.5 276.5q0 177 70.5 263t190.5 86q119 0 188.5 -85.5t69.5 -263.5q0 -189 -69 -277t-190 -88zM326 14q234 0 234 342
q0 167 -62 246.5t-171 79.5q-110 0 -173 -79.5t-63 -246.5q0 -342 235 -342z" />
    <glyph glyph-name="obreve" unicode="&#x14f;" horiz-adv-x="541" 
d="M271 623q-68 0 -107 34t-40 103h22q1 -118 125 -118t125 118h23q-1 -69 -40.5 -103t-107.5 -34zM270 -9q-94 0 -148 68t-54 204q0 132 54.5 200.5t148.5 68.5q92 0 147 -69t55 -201q0 -135 -54.5 -203t-148.5 -68zM270 14q84 0 130.5 61.5t46.5 186.5q0 122 -47 184
t-129 62q-83 0 -130.5 -62t-47.5 -183q0 -125 47 -187t130 -62z" />
    <glyph glyph-name="Ohungarumlaut" unicode="&#x150;" horiz-adv-x="651" 
d="M228 780q51 88 77 151h29q-32 -64 -87 -151h-19zM347 780q39 69 78 151h28q-32 -64 -87 -151h-19zM326 -9q-121 0 -190.5 88.5t-69.5 276.5q0 177 70.5 263t190.5 86q119 0 188.5 -85.5t69.5 -263.5q0 -189 -69 -277t-190 -88zM326 14q234 0 234 342q0 167 -62 246.5
t-171 79.5q-110 0 -173 -79.5t-63 -246.5q0 -342 235 -342z" />
    <glyph glyph-name="ohungarumlaut" unicode="&#x151;" horiz-adv-x="541" 
d="M174 607q49 84 77 150h29q-39 -78 -87 -150h-19zM293 607q46 78 78 150h28q-34 -68 -87 -150h-19zM270 -9q-94 0 -148 68t-54 204q0 132 54.5 200.5t148.5 68.5q92 0 147 -69t55 -201q0 -135 -54.5 -203t-148.5 -68zM270 14q84 0 130.5 61.5t46.5 186.5q0 122 -47 184
t-129 62q-83 0 -130.5 -62t-47.5 -183q0 -125 47 -187t130 -62z" />
    <glyph glyph-name="OE" unicode="&#x152;" horiz-adv-x="958" 
d="M378 0q-131 0 -209.5 84t-78.5 268q0 177 78.5 260.5t208.5 83.5h528v-22h-354v-282h315v-22h-315v-348h354v-22h-527zM378 23h147v651h-148q-120 0 -190.5 -78t-70.5 -244q0 -173 70.5 -251t191.5 -78z" />
    <glyph glyph-name="oe" unicode="&#x153;" horiz-adv-x="918" 
d="M657 509q-84 0 -131.5 -55t-52.5 -166h351v12q-1 101 -47 155t-120 54zM270 14q84 0 130.5 61.5t46.5 186.5q0 122 -47 184t-129 62q-83 0 -130.5 -62t-47.5 -183q0 -125 47 -187t130 -62zM834 72q-56 -81 -169 -81q-166 0 -205 171q-18 -86 -67.5 -128.5t-122.5 -42.5
q-94 0 -148 68t-54 204q0 132 54.5 200.5t148.5 68.5q71 0 121 -43t68 -127q18 84 69.5 127t128.5 43q83 0 137.5 -61.5t54.5 -172.5v-33h-377v-2q0 -124 49.5 -186.5t142.5 -62.5q98 0 152 74z" />
    <glyph glyph-name="Racute" unicode="&#x154;" horiz-adv-x="605" 
d="M246 780q58 76 101 151h36q-46 -72 -115 -151h-22zM506 -1l-199 292h-183v-291h-25v696h216q99 0 155 -55t56 -150q0 -79 -51.5 -136t-138.5 -64l199 -290zM124 313h190q86 0 136.5 50.5t50.5 127.5q0 85 -49 134t-138 49h-190v-361z" />
    <glyph glyph-name="racute" unicode="&#x155;" horiz-adv-x="411" 
d="M185 607q57 73 101 150h36q-48 -75 -115 -150h-22zM124 -1h-25v523h25v-109q66 116 179 116q41 0 64 -12l-5 -24q-28 13 -62 13q-110 0 -176 -117v-390z" />
    <glyph glyph-name="Rcommaaccent" unicode="&#x156;" horiz-adv-x="605" 
d="M506 -1l-199 292h-183v-291h-25v696h216q99 0 155 -55t56 -150q0 -79 -51.5 -136t-138.5 -64l199 -290zM124 313h190q86 0 136.5 50.5t50.5 127.5q0 85 -49 134t-138 49h-190v-361zM248 -211q33 72 45 132h35q-19 -65 -60 -132h-20z" />
    <glyph glyph-name="rcommaaccent" unicode="&#x157;" horiz-adv-x="411" 
d="M124 -1h-25v523h25v-109q66 116 179 116q41 0 64 -12l-5 -24q-28 13 -62 13q-110 0 -176 -117v-390zM51 -211q30 67 45 132h35q-19 -65 -60 -132h-20z" />
    <glyph glyph-name="Rcaron" unicode="&#x158;" horiz-adv-x="605" 
d="M298 788q-68 65 -151 129l13 14q93 -71 148 -120q65 61 146 120l12 -14q-88 -69 -148 -129h-20zM506 -1l-199 292h-183v-291h-25v696h216q99 0 155 -55t56 -150q0 -79 -51.5 -136t-138.5 -64l199 -290zM124 313h190q86 0 136.5 50.5t50.5 127.5q0 85 -49 134t-138 49
h-190v-361z" />
    <glyph glyph-name="rcaron" unicode="&#x159;" horiz-adv-x="411" 
d="M217 614q-59 59 -150 129l12 14q80 -58 149 -120q66 63 146 120l12 -14q-88 -68 -148 -129h-21zM124 -1h-25v523h25v-109q66 116 179 116q41 0 64 -12l-5 -24q-28 13 -62 13q-110 0 -176 -117v-390z" />
    <glyph glyph-name="Sacute" unicode="&#x15a;" horiz-adv-x="578" 
d="M249 780q58 76 101 151h36q-46 -72 -115 -151h-22zM300 -5q-167 0 -248 128l18 15q78 -121 230 -121q87 0 139 43.5t52 116.5q0 67 -47.5 103t-157.5 62q-107 25 -156.5 68t-49.5 117q0 78 53.5 125.5t143.5 47.5q146 0 222 -117l-18 -15q-76 109 -205 109
q-78 0 -124 -39.5t-46 -108.5q0 -66 44.5 -103.5t145.5 -60.5q116 -27 167.5 -69t51.5 -118q0 -82 -58.5 -132.5t-156.5 -50.5z" />
    <glyph glyph-name="sacute" unicode="&#x15b;" horiz-adv-x="489" 
d="M193 607q57 73 101 150h36q-48 -75 -115 -150h-22zM255 -9q-121 0 -199 62l13 19q74 -58 186 -58q66 0 110 29t44 84q0 52 -37 77.5t-123 44.5q-95 21 -136.5 51t-41.5 93q0 65 47 102t117 37q104 0 182 -64l-13 -19q-73 59 -169 59q-60 0 -99.5 -29.5t-39.5 -84.5
q0 -53 36.5 -77.5t124.5 -43.5q92 -20 134.5 -51t42.5 -93q0 -65 -51 -101.5t-128 -36.5z" />
    <glyph glyph-name="Scircumflex" unicode="&#x15c;" horiz-adv-x="578" 
d="M152 792l-12 14q83 63 149 129h20q72 -69 150 -129l-12 -14q-70 48 -148 120q-67 -64 -147 -120zM300 -5q-167 0 -248 128l18 15q78 -121 230 -121q87 0 139 43.5t52 116.5q0 67 -47.5 103t-157.5 62q-107 25 -156.5 68t-49.5 117q0 78 53.5 125.5t143.5 47.5
q146 0 222 -117l-18 -15q-76 109 -205 109q-78 0 -124 -39.5t-46 -108.5q0 -66 44.5 -103.5t145.5 -60.5q116 -27 167.5 -69t51.5 -118q0 -82 -58.5 -132.5t-156.5 -50.5z" />
    <glyph glyph-name="scircumflex" unicode="&#x15d;" horiz-adv-x="489" 
d="M86 618l-12 14q83 63 149 129h20q78 -74 150 -129l-12 -14q-76 53 -148 120q-67 -64 -147 -120zM255 -9q-121 0 -199 62l13 19q74 -58 186 -58q66 0 110 29t44 84q0 52 -37 77.5t-123 44.5q-95 21 -136.5 51t-41.5 93q0 65 47 102t117 37q104 0 182 -64l-13 -19
q-73 59 -169 59q-60 0 -99.5 -29.5t-39.5 -84.5q0 -53 36.5 -77.5t124.5 -43.5q92 -20 134.5 -51t42.5 -93q0 -65 -51 -101.5t-128 -36.5z" />
    <glyph glyph-name="Scedilla" unicode="&#x15e;" horiz-adv-x="578" 
d="M303 -182q-67 0 -102 52l15 12q31 -46 87 -46q35 0 57.5 14.5t22.5 42.5q0 54 -92 63v39q-161 3 -239 128l18 15q78 -121 230 -121q87 0 139 43.5t52 116.5q0 67 -47.5 103t-157.5 62q-107 25 -156.5 68t-49.5 117q0 78 53.5 125.5t143.5 47.5q146 0 222 -117l-18 -15
q-76 109 -205 109q-78 0 -124 -39.5t-46 -108.5q0 -66 44.5 -103.5t145.5 -60.5q116 -27 167.5 -69t51.5 -118q0 -79 -56 -129.5t-149 -53.5v-27q95 -10 95 -75q0 -36 -29.5 -55.5t-72.5 -19.5z" />
    <glyph glyph-name="scedilla" unicode="&#x15f;" horiz-adv-x="489" 
d="M257 -182q-67 0 -102 52l16 12q29 -46 86 -46q35 0 57.5 14.5t22.5 42.5q0 54 -92 63v35q-114 3 -189 62l13 19q74 -58 186 -58q66 0 110 29t44 84q0 52 -37 77.5t-123 44.5q-95 21 -136.5 51t-41.5 93q0 65 47 102t117 37q104 0 182 -64l-13 -19q-73 59 -169 59
q-60 0 -99.5 -29.5t-39.5 -84.5q0 -53 36.5 -77.5t124.5 -43.5q92 -20 134.5 -51t42.5 -93q0 -63 -48 -99.5t-122 -38.5v-23q45 -5 70.5 -24t25.5 -51q0 -36 -29.5 -55.5t-73.5 -19.5z" />
    <glyph glyph-name="Scaron" unicode="&#x160;" horiz-adv-x="578" 
d="M280 788q-65 64 -150 129l12 14q90 -67 149 -120q59 57 146 120l12 -14q-82 -63 -148 -129h-21zM300 -5q-167 0 -248 128l18 15q78 -121 230 -121q87 0 139 43.5t52 116.5q0 67 -47.5 103t-157.5 62q-107 25 -156.5 68t-49.5 117q0 78 53.5 125.5t143.5 47.5
q146 0 222 -117l-18 -15q-76 109 -205 109q-78 0 -124 -39.5t-46 -108.5q0 -66 44.5 -103.5t145.5 -60.5q116 -27 167.5 -69t51.5 -118q0 -82 -58.5 -132.5t-156.5 -50.5z" />
    <glyph glyph-name="scaron" unicode="&#x161;" horiz-adv-x="489" 
d="M225 614q-61 60 -151 129l12 14q80 -58 149 -120q66 63 146 120l12 -14q-88 -68 -148 -129h-20zM255 -9q-121 0 -199 62l13 19q74 -58 186 -58q66 0 110 29t44 84q0 52 -37 77.5t-123 44.5q-95 21 -136.5 51t-41.5 93q0 65 47 102t117 37q104 0 182 -64l-13 -19
q-73 59 -169 59q-60 0 -99.5 -29.5t-39.5 -84.5q0 -53 36.5 -77.5t124.5 -43.5q92 -20 134.5 -51t42.5 -93q0 -65 -51 -101.5t-128 -36.5z" />
    <glyph glyph-name="Tcedilla" unicode="&#x162;" horiz-adv-x="544" 
d="M265 -182q-68 0 -101 52l15 12q29 -46 86 -46q35 0 58 14.5t23 42.5q0 54 -93 63v45h6v673h-229v22h483v-22h-228v-674h-13v-32q45 -5 70.5 -24t25.5 -51q0 -36 -29.5 -55.5t-73.5 -19.5z" />
    <glyph glyph-name="tcedilla" unicode="&#x163;" horiz-adv-x="369" 
d="M245 -182q-67 0 -102 52l16 12q29 -46 86 -46q35 0 57.5 14.5t22.5 42.5q0 54 -92 63v38q-99 15 -99 157v348h-110v23h110v144h26v-144h171v-23h-171v-349q0 -135 99 -135q33 0 76 20l5 -23q-45 -20 -82 -20h-6v-24q45 -5 70.5 -24t25.5 -51q0 -36 -29.5 -55.5
t-73.5 -19.5z" />
    <glyph glyph-name="Tcaron" unicode="&#x164;" horiz-adv-x="544" 
d="M263 788q-72 69 -150 129l12 14q91 -68 148 -120q62 58 147 120l12 -14q-88 -68 -148 -129h-21zM259 0v674h-229v22h483v-22h-228v-674h-26z" />
    <glyph glyph-name="tcaron" unicode="&#x165;" horiz-adv-x="369" 
d="M276 636q30 74 39 142h28q-12 -75 -47 -142h-20zM258 -8q-124 0 -124 159v348h-110v23h110v144h26v-144h171v-23h-171v-349q0 -135 99 -135q33 0 76 20l5 -23q-45 -20 -82 -20z" />
    <glyph glyph-name="Tbar" unicode="&#x166;" horiz-adv-x="544" 
d="M466 305h-181v-305h-26v305h-182v23h182v346h-229v22h483v-22h-228v-346h181v-23z" />
    <glyph glyph-name="tbar" unicode="&#x167;" horiz-adv-x="369" 
d="M340 12q-45 -20 -82 -20q-124 0 -124 159v132h-110v23h110v193h-110v23h110v144h26v-144h171v-23h-171v-193h172v-23h-172v-133q0 -135 99 -135q33 0 76 20z" />
    <glyph glyph-name="Utilde" unicode="&#x168;" horiz-adv-x="643" 
d="M396 796q-46 0 -80 66q-11 20 -18.5 31t-21 21.5t-28.5 10.5q-29 0 -45 -30t-16 -80v-12h-22v13q0 58 22.5 94t62.5 36q28 0 46 -17t34 -49q16 -30 31.5 -46.5t36.5 -16.5q28 0 43.5 29.5t15.5 80.5v12h23v-13q0 -59 -22 -94.5t-62 -35.5zM322 -9q-108 0 -169 71.5
t-61 182.5v451h26v-451q0 -101 53 -166t151 -65q97 0 150 65t53 166v451h26v-451q0 -111 -60.5 -182.5t-168.5 -71.5z" />
    <glyph glyph-name="utilde" unicode="&#x169;" 
d="M352 622q-27 0 -45.5 17t-35.5 49q-11 20 -18.5 31.5t-21 21.5t-28.5 10q-28 0 -44.5 -30.5t-16.5 -79.5v-12h-22v13q0 58 22.5 94t62.5 36q28 0 46 -17t35 -49q33 -63 68 -63q28 0 43.5 29.5t15.5 80.5v12h22v-13q0 -59 -22 -94.5t-61 -35.5zM438 522h25v-522h-25v125
q-81 -134 -191 -134q-70 0 -110 46.5t-40 128.5v356h26v-351q0 -74 34 -115t96 -41q107 0 185 136v371z" />
    <glyph glyph-name="Umacron" unicode="&#x16a;" horiz-adv-x="643" 
d="M186 841v22h272v-22h-272zM322 -9q-108 0 -169 71.5t-61 182.5v451h26v-451q0 -101 53 -166t151 -65q97 0 150 65t53 166v451h26v-451q0 -111 -60.5 -182.5t-168.5 -71.5z" />
    <glyph glyph-name="umacron" unicode="&#x16b;" 
d="M141 668v21h273v-21h-273zM438 522h25v-522h-25v125q-81 -134 -191 -134q-70 0 -110 46.5t-40 128.5v356h26v-351q0 -74 34 -115t96 -41q107 0 185 136v371z" />
    <glyph glyph-name="Ubreve" unicode="&#x16c;" horiz-adv-x="643" 
d="M322 797q-68 0 -107 33.5t-40 103.5h22q1 -118 125 -118t125 118h23q-3 -137 -148 -137zM322 -9q-108 0 -169 71.5t-61 182.5v451h26v-451q0 -101 53 -166t151 -65q97 0 150 65t53 166v451h26v-451q0 -111 -60.5 -182.5t-168.5 -71.5z" />
    <glyph glyph-name="ubreve" unicode="&#x16d;" 
d="M277 623q-68 0 -107 34t-40 103h22q1 -118 125 -118t125 118h23q-1 -69 -40.5 -103t-107.5 -34zM438 522h25v-522h-25v125q-81 -134 -191 -134q-70 0 -110 46.5t-40 128.5v356h26v-351q0 -74 34 -115t96 -41q107 0 185 136v371z" />
    <glyph glyph-name="Uring" unicode="&#x16e;" horiz-adv-x="643" 
d="M322 784q-47 0 -74 28.5t-27 80.5q0 53 27 82t74 29t74.5 -29t27.5 -82q0 -52 -27.5 -80.5t-74.5 -28.5zM322 802q38 0 59.5 23.5t21.5 67.5t-21.5 68.5t-59.5 24.5t-59.5 -24.5t-21.5 -68.5t21.5 -67.5t59.5 -23.5zM322 -9q-108 0 -169 71.5t-61 182.5v451h26v-451
q0 -101 53 -166t151 -65q97 0 150 65t53 166v451h26v-451q0 -111 -60.5 -182.5t-168.5 -71.5z" />
    <glyph glyph-name="uring" unicode="&#x16f;" 
d="M277 610q-47 0 -74 28.5t-27 81.5t27 81.5t74 28.5t74.5 -28.5t27.5 -81.5t-27.5 -81.5t-74.5 -28.5zM277 628q38 0 60 24t22 68q0 43 -22 67.5t-60 24.5q-37 0 -59 -24.5t-22 -67.5q0 -44 22 -68t59 -24zM438 522h25v-522h-25v125q-81 -134 -191 -134q-70 0 -110 46.5
t-40 128.5v356h26v-351q0 -74 34 -115t96 -41q107 0 185 136v371z" />
    <glyph glyph-name="Uhungarumlaut" unicode="&#x170;" horiz-adv-x="643" 
d="M225 780q45 79 77 151h29q-32 -64 -87 -151h-19zM343 780q39 65 79 151h28q-32 -64 -87 -151h-20zM322 -9q-108 0 -169 71.5t-61 182.5v451h26v-451q0 -101 53 -166t151 -65q97 0 150 65t53 166v451h26v-451q0 -111 -60.5 -182.5t-168.5 -71.5z" />
    <glyph glyph-name="uhungarumlaut" unicode="&#x171;" 
d="M180 607q49 84 77 150h30q-42 -81 -88 -150h-19zM299 607q46 78 78 150h28q-39 -78 -87 -150h-19zM438 522h25v-522h-25v125q-81 -134 -191 -134q-70 0 -110 46.5t-40 128.5v356h26v-351q0 -74 34 -115t96 -41q107 0 185 136v371z" />
    <glyph glyph-name="Uogonek" unicode="&#x172;" horiz-adv-x="643" 
d="M360 -188q-44 0 -73 22t-29 59q0 57 55 98q-104 3 -162.5 74t-58.5 180v451h26v-451q0 -101 53 -166t151 -65q97 0 150 65t53 166v451h26v-451q0 -106 -56.5 -177t-156.5 -77q-60 -38 -60 -93q0 -30 24 -48t61 -18q28 0 56 8l2 -20q-32 -8 -61 -8z" />
    <glyph glyph-name="uogonek" unicode="&#x173;" 
d="M525 -174q-30 -8 -61 -8q-43 0 -72 22.5t-29 58.5q0 34 21.5 63.5t53.5 47.5v115q-81 -134 -191 -134q-70 0 -110 46.5t-40 128.5v356h26v-351q0 -74 34 -115t96 -41q107 0 185 136v371h25v-522h-16q-64 -39 -64 -96q0 -30 23.5 -48t60.5 -18q33 0 56 9z" />
    <glyph glyph-name="Wcircumflex" unicode="&#x174;" horiz-adv-x="773" 
d="M239 792l-12 14q84 65 148 129h20q74 -71 151 -129l-12 -14q-74 51 -149 120q-70 -67 -146 -120zM562 0l-169 574l-169 -574h-26l-158 695l25 2l147 -659l169 574h23l171 -574l147 659l24 -2l-160 -695h-24z" />
    <glyph glyph-name="wcircumflex" unicode="&#x175;" horiz-adv-x="702" 
d="M203 618l-12 14q85 64 148 129h21q78 -74 150 -129l-12 -14q-76 53 -148 120q-68 -64 -147 -120zM483 0l-132 445l-131 -445h-25l-146 521l25 2l134 -489l132 449h22l133 -449l134 489l24 -2l-146 -521h-24z" />
    <glyph glyph-name="Ycircumflex" unicode="&#x176;" horiz-adv-x="586" 
d="M145 792l-12 14q83 63 149 129h20q78 -74 150 -129l-12 -14q-76 53 -148 120q-68 -64 -147 -120zM306 0h-26v275l-253 421h29l237 -397l236 397h29l-252 -421v-275z" />
    <glyph glyph-name="ycircumflex" unicode="&#x177;" horiz-adv-x="490" 
d="M98 618l-13 14q83 63 149 129h20q72 -69 150 -129l-12 -14q-70 48 -148 120q-66 -63 -146 -120zM101 -181q-33 0 -58 8l5 24q32 -10 54 -10q42 0 66 25t44 79l21 56l-194 520l26 2l181 -492l181 492l26 -2l-221 -588q-23 -60 -53.5 -87t-77.5 -27z" />
    <glyph glyph-name="Ydieresis" unicode="&#x178;" horiz-adv-x="586" 
d="M354 823q-23 0 -23 23t23 23q24 0 24 -23t-24 -23zM232 823q-24 0 -24 23t24 23q23 0 23 -23t-23 -23zM306 0h-26v275l-253 421h29l237 -397l236 397h29l-252 -421v-275z" />
    <glyph glyph-name="Zacute" unicode="&#x179;" horiz-adv-x="579" 
d="M229 780q64 86 100 151h37q-52 -79 -115 -151h-22zM520 0h-462v23l432 651h-432v22h462v-22l-433 -651h433v-23z" />
    <glyph glyph-name="zacute" unicode="&#x17a;" horiz-adv-x="475" 
d="M177 607q63 82 100 150h37q-53 -81 -115 -150h-22zM418 0h-361v23l331 476h-331v23h361v-23l-332 -476h332v-23z" />
    <glyph glyph-name="Zdotaccent" unicode="&#x17b;" horiz-adv-x="579" 
d="M290 823q-24 0 -24 23t24 23q23 0 23 -23t-23 -23zM520 0h-462v23l432 651h-432v22h462v-22l-433 -651h433v-23z" />
    <glyph glyph-name="zdotaccent" unicode="&#x17c;" horiz-adv-x="475" 
d="M238 649q-10 0 -17 6.5t-7 16.5q0 23 24 23q23 0 23 -23t-23 -23zM418 0h-361v23l331 476h-331v23h361v-23l-332 -476h332v-23z" />
    <glyph glyph-name="Zcaron" unicode="&#x17d;" horiz-adv-x="579" 
d="M280 788q-65 64 -150 129l12 14q90 -67 149 -120q59 57 146 120l12 -14q-82 -63 -148 -129h-21zM520 0h-462v23l432 651h-432v22h462v-22l-433 -651h433v-23z" />
    <glyph glyph-name="zcaron" unicode="&#x17e;" horiz-adv-x="475" 
d="M229 614q-61 60 -151 129l12 14q80 -58 149 -120q72 67 146 120l12 -14q-93 -73 -148 -129h-20zM418 0h-361v23l331 476h-331v23h361v-23l-332 -476h332v-23z" />
    <glyph glyph-name="florin" unicode="&#x192;" horiz-adv-x="468" 
d="M124 -7q-43 0 -75 13l6 22q34 -12 63 -12q104 0 104 131v240h-164v23h164v157q0 74 33.5 111t89.5 37q42 0 74 -13l-5 -21q-38 12 -64 12q-103 0 -103 -132v-151h170v-23h-170v-246q0 -73 -34 -110.5t-89 -37.5z" />
    <glyph glyph-name="Aringacute" unicode="&#x1fa;" horiz-adv-x="602" 
d="M302 763q-47 0 -74.5 29t-27.5 81q0 49 23.5 77.5t64.5 32.5q61 79 99 148h37q-53 -80 -113 -148q43 -2 67.5 -31t24.5 -79q0 -52 -27 -81t-74 -29zM302 782q38 0 59.5 23.5t21.5 67.5t-21.5 68t-59.5 24t-59.5 -24t-21.5 -68t21.5 -67.5t59.5 -23.5zM534 -1l-82 235
h-302l-82 -235l-25 2l247 697h23l247 -697zM444 256l-143 413l-143 -413h286z" />
    <glyph glyph-name="aringacute" unicode="&#x1fb;" horiz-adv-x="534" 
d="M234 868q66 88 100 150h37q-49 -75 -115 -150h-22zM248 610q-47 0 -74.5 28.5t-27.5 81.5t27.5 81.5t74.5 28.5t74.5 -28.5t27.5 -81.5t-27.5 -81.5t-74.5 -28.5zM248 628q38 0 59.5 24t21.5 68q0 43 -21.5 67.5t-59.5 24.5t-59.5 -24.5t-21.5 -67.5q0 -44 21.5 -68
t59.5 -24zM224 11q48 0 94.5 24t80.5 64v160h-178q-59 0 -96.5 -33t-37.5 -91t38.5 -91t98.5 -33zM220 -11q-68 0 -113 38.5t-45 105.5q0 69 43.5 108t114.5 39h179v84q0 71 -39 108t-109 37q-110 0 -153 -103l-22 10q49 116 177 116q78 0 124.5 -42.5t46.5 -121.5v-280
q0 -42 22 -61t61 -6l1 -23q-44 -13 -73 9.5t-30 69.5v3q-37 -41 -86 -66t-99 -25z" />
    <glyph glyph-name="AEacute" unicode="&#x1fc;" horiz-adv-x="831" 
d="M493 780q64 86 100 151h37q-46 -72 -115 -151h-22zM308 674l-146 -397h274v397h-128zM436 255h-282l-93 -255h-27l258 696h494v-22h-325v-282h285v-22h-285v-347h325v-23h-350v255z" />
    <glyph glyph-name="aeacute" unicode="&#x1fd;" horiz-adv-x="826" 
d="M353 607q63 82 100 150h37q-53 -81 -115 -150h-22zM606 509q-83 0 -130 -55.5t-52 -165.5h346v12q-1 101 -46.5 155t-117.5 54zM225 11q101 0 195 110q-22 61 -22 140h-177q-60 0 -97.5 -33t-37.5 -93q0 -58 39 -91t100 -33zM614 -9q-133 0 -185 110q-100 -112 -209 -112
q-68 0 -113 38.5t-45 105.5q0 70 43.5 110.5t115.5 40.5h177v81q0 70 -39 107t-108 37q-110 0 -153 -104l-22 12q49 115 177 115q68 0 112.5 -33t55.5 -94q48 127 186 127q82 0 135.5 -61.5t53.5 -172.5v-33h-372v-2q0 -124 49 -186.5t141 -62.5q95 0 149 74l17 -16
q-56 -81 -166 -81z" />
    <glyph glyph-name="Oslashacute" unicode="&#x1fe;" horiz-adv-x="647" 
d="M272 780q58 76 101 151h37q-47 -71 -115 -151h-23zM91 356q0 -229 108 -306l225 613q-41 19 -97 19q-110 0 -173 -79.5t-63 -246.5zM326 14q234 0 234 342q0 226 -117 297l-225 -614q46 -25 108 -25zM326 -9q-66 0 -117 26l-38 -104l-22 1l42 113q-125 81 -125 329
q0 177 70.5 263t190.5 86q59 0 105 -20l36 100l23 -2l-40 -108q134 -75 134 -319q0 -189 -69 -277t-190 -88z" />
    <glyph glyph-name="oslashacute" unicode="&#x1ff;" horiz-adv-x="586" 
d="M233 607q63 82 100 150h37q-53 -81 -115 -150h-22zM93 263q0 -155 74 -215l197 433q-39 27 -93 27q-83 0 -130.5 -62t-47.5 -183zM270 14q84 0 130.5 61.5t46.5 186.5q0 144 -67 206l-197 -432q37 -22 87 -22zM270 -9q-55 0 -97 24l-46 -102h-22l51 113q-88 64 -88 237
q0 132 54.5 200.5t148.5 68.5q58 0 104 -29l49 107h22l-55 -119q82 -69 82 -229q0 -135 -54.5 -203t-148.5 -68z" />
    <glyph glyph-name="Scommaaccent" unicode="&#x218;" horiz-adv-x="578" 
d="M300 -5q-167 0 -248 128l18 15q78 -121 230 -121q87 0 139 43.5t52 116.5q0 67 -47.5 103t-157.5 62q-107 25 -156.5 68t-49.5 117q0 78 53.5 125.5t143.5 47.5q146 0 222 -117l-18 -15q-76 109 -205 109q-78 0 -124 -39.5t-46 -108.5q0 -66 44.5 -103.5t145.5 -60.5
q116 -27 167.5 -69t51.5 -118q0 -82 -58.5 -132.5t-156.5 -50.5zM237 -211q30 67 45 132h35q-17 -60 -60 -132h-20z" />
    <glyph glyph-name="scommaaccent" unicode="&#x219;" horiz-adv-x="489" 
d="M255 -9q-121 0 -199 62l13 19q74 -58 186 -58q66 0 110 29t44 84q0 52 -37 77.5t-123 44.5q-95 21 -136.5 51t-41.5 93q0 65 47 102t117 37q104 0 182 -64l-13 -19q-73 59 -169 59q-60 0 -99.5 -29.5t-39.5 -84.5q0 -53 36.5 -77.5t124.5 -43.5q92 -20 134.5 -51
t42.5 -93q0 -65 -51 -101.5t-128 -36.5zM178 -211q30 67 45 132h35q-19 -65 -60 -132h-20z" />
    <glyph glyph-name="Tcommaaccent" unicode="&#x21a;" horiz-adv-x="544" 
d="M259 0v674h-229v22h483v-22h-228v-674h-26zM209 -211q31 66 45 132h36q-20 -64 -60 -132h-21z" />
    <glyph glyph-name="tcommaaccent" unicode="&#x21b;" horiz-adv-x="369" 
d="M258 -8q-124 0 -124 159v348h-110v23h110v144h26v-144h171v-23h-171v-349q0 -135 99 -135q33 0 76 20l5 -23q-45 -20 -82 -20zM170 -211q31 68 44 132h36q-17 -60 -60 -132h-20z" />
    <glyph glyph-name="dotlessj" unicode="&#x237;" horiz-adv-x="262" 
d="M29 -181q-34 0 -73 14l6 24q40 -14 65 -14q44 0 70 27.5t26 85.5v566h25v-566q0 -69 -33 -103t-86 -34z" />
    <glyph glyph-name="uni02BB" unicode="&#x2bb;" horiz-adv-x="227" 
d="M158 696q-33 -82 -42 -157h-33q13 78 54 157h21z" />
    <glyph glyph-name="uni02BC" unicode="&#x2bc;" horiz-adv-x="227" 
d="M66 539q34 85 42 157h32q-12 -82 -54 -157h-20z" />
    <glyph glyph-name="circumflex" unicode="&#x2c6;" horiz-adv-x="528" 
d="M116 618l-12 14q79 60 148 129h20q74 -71 151 -129l-12 -14q-74 51 -149 120q-70 -67 -146 -120z" />
    <glyph glyph-name="caron" unicode="&#x2c7;" horiz-adv-x="528" 
d="M254 614q-58 57 -150 129l12 14q75 -54 148 -120q69 65 147 120l12 -14q-92 -71 -149 -129h-20z" />
    <glyph glyph-name="uni02C9" unicode="&#x2c9;" horiz-adv-x="528" 
d="M127 668v21h272v-21h-272z" />
    <glyph glyph-name="breve" unicode="&#x2d8;" horiz-adv-x="528" 
d="M263 623q-68 0 -107 34t-40 103h22q1 -118 125 -118t125 118h23q-1 -69 -40.5 -103t-107.5 -34z" />
    <glyph glyph-name="dotaccent" unicode="&#x2d9;" horiz-adv-x="0" 
d="M-1 649q-10 0 -16.5 6.5t-6.5 16.5q0 23 23 23t23 -23t-23 -23z" />
    <glyph glyph-name="ring" unicode="&#x2da;" horiz-adv-x="528" 
d="M263 610q-47 0 -74 28.5t-27 81.5t27 81.5t74 28.5t74.5 -28.5t27.5 -81.5t-27.5 -81.5t-74.5 -28.5zM263 628q38 0 60 24t22 68q0 43 -22 67.5t-60 24.5t-59.5 -24.5t-21.5 -67.5q0 -44 21.5 -68t59.5 -24z" />
    <glyph glyph-name="ogonek" unicode="&#x2db;" horiz-adv-x="528" 
d="M291 -182q-44 0 -73 22.5t-29 58.5t25.5 68.5t60.5 47.5l9 -9q-33 -17 -54 -44t-21 -58q0 -30 24 -48t61 -18q31 0 56 9l2 -21q-32 -8 -61 -8z" />
    <glyph glyph-name="tilde" unicode="&#x2dc;" horiz-adv-x="528" 
d="M337 622q-46 0 -80 66q-11 20 -18.5 31.5t-21 21.5t-28.5 10q-29 0 -45 -30t-16 -80v-12h-22v13q0 58 22.5 94t62.5 36q28 0 46 -17t34 -49q16 -30 31.5 -46.5t36.5 -16.5q28 0 43.5 29.5t15.5 80.5v12h23v-13q0 -59 -22 -94.5t-62 -35.5z" />
    <glyph glyph-name="hungarumlaut" unicode="&#x2dd;" horiz-adv-x="528" 
d="M166 607q49 84 77 150h29q-34 -68 -87 -150h-19zM285 607q38 66 78 150h28q-34 -68 -87 -150h-19z" />
    <glyph glyph-name="gravecmb" unicode="&#x300;" horiz-adv-x="0" 
d="M25 607q-63 71 -114 150h33q50 -85 102 -150h-21z" />
    <glyph glyph-name="acutecmb" unicode="&#x301;" horiz-adv-x="0" 
d="M-61 607q57 73 101 150h36q-48 -75 -115 -150h-22z" />
    <glyph glyph-name="circumflexcmb" unicode="&#x302;" horiz-adv-x="0" 
d="M-147 618l-13 14q83 63 149 129h20q74 -71 151 -129l-13 -14q-74 52 -148 120q-66 -63 -146 -120z" />
    <glyph glyph-name="tildecmb" unicode="&#x303;" horiz-adv-x="0" 
d="M74 622q-46 0 -80 66q-33 63 -68 63q-29 0 -45 -30t-16 -80v-12h-23v13q0 58 23 94t63 36q46 0 80 -66q33 -63 68 -63q28 0 43.5 29.5t15.5 80.5v12h23v-13q0 -59 -22 -94.5t-62 -35.5z" />
    <glyph glyph-name="macroncmb" unicode="&#x304;" horiz-adv-x="0" 
d="M-136 668v21h272v-21h-272z" />
    <glyph glyph-name="brevecmb" unicode="&#x306;" horiz-adv-x="0" 
d="M0 623q-68 0 -107 34t-40 103h22q1 -118 125 -118t125 118h22q-1 -69 -40 -103t-107 -34z" />
    <glyph glyph-name="dotaccentcmb" unicode="&#x307;" horiz-adv-x="0" 
d="M0 649q-10 0 -16.5 6.5t-6.5 16.5q0 23 23 23t23 -23t-23 -23z" />
    <glyph glyph-name="dieresiscmb" unicode="&#x308;" horiz-adv-x="0" 
d="M61 649q-22 0 -22 23t22 23q24 0 24 -23t-24 -23zM-61 649q-23 0 -23 23t23 23t23 -23q0 -10 -6.5 -16.5t-16.5 -6.5z" />
    <glyph glyph-name="ringcmb" unicode="&#x30a;" horiz-adv-x="0" 
d="M0 610q-47 0 -74.5 28.5t-27.5 81.5t27.5 81.5t74.5 28.5t74.5 -28.5t27.5 -81.5t-27.5 -81.5t-74.5 -28.5zM0 628q38 0 59.5 24t21.5 68q0 43 -21.5 67.5t-59.5 24.5t-59.5 -24.5t-21.5 -67.5q0 -44 21.5 -68t59.5 -24z" />
    <glyph glyph-name="hungarumlautcmb" unicode="&#x30b;" horiz-adv-x="0" 
d="M-98 607q44 72 78 150h29q-34 -68 -87 -150h-20zM21 607q38 63 79 150h28q-34 -68 -87 -150h-20z" />
    <glyph glyph-name="caroncmb" unicode="&#x30c;" horiz-adv-x="0" 
d="M-9 614q-61 60 -151 129l13 14q82 -60 148 -120q67 63 146 120l13 -14q-92 -71 -149 -129h-20z" />
    <glyph glyph-name="commaturnedabovecmb" unicode="&#x312;" horiz-adv-x="0" 
d="M-36 613q19 61 60 131h21q-31 -64 -45 -131h-36z" />
    <glyph glyph-name="commaaccentcmb" unicode="&#x326;" horiz-adv-x="0" 
d="M-46 -211q31 66 45 132h36q-20 -64 -60 -132h-21z" />
    <glyph glyph-name="cedillacmb" unicode="&#x327;" horiz-adv-x="0" 
d="M3 -182q-67 0 -102 52l16 12q29 -46 86 -46q35 0 57.5 14.5t22.5 42.5q0 54 -92 63v45h19v-33q45 -5 70.5 -24t25.5 -51q0 -36 -29.5 -55.5t-73.5 -19.5z" />
    <glyph glyph-name="ogonekcmb" unicode="&#x328;" horiz-adv-x="0" 
d="M27 -182q-43 0 -72 22.5t-29 58.5q0 37 25 69t61 47l8 -9q-33 -17 -53.5 -44.5t-20.5 -57.5t23.5 -48t60.5 -18q33 0 56 9l2 -21q-30 -8 -61 -8z" />
    <glyph glyph-name="Wgrave" unicode="&#x1e80;" horiz-adv-x="773" 
d="M412 780q-64 72 -115 151h33q49 -83 102 -151h-20zM562 0l-169 574l-169 -574h-26l-158 695l25 2l147 -659l169 574h23l171 -574l147 659l24 -2l-160 -695h-24z" />
    <glyph glyph-name="wgrave" unicode="&#x1e81;" horiz-adv-x="702" 
d="M376 607q-58 63 -115 150h34q43 -76 101 -150h-20zM483 0l-132 445l-131 -445h-25l-146 521l25 2l134 -489l132 449h22l133 -449l134 489l24 -2l-146 -521h-24z" />
    <glyph glyph-name="Wacute" unicode="&#x1e82;" horiz-adv-x="773" 
d="M325 780q58 76 101 151h36q-44 -69 -114 -151h-23zM562 0l-169 574l-169 -574h-26l-158 695l25 2l147 -659l169 574h23l171 -574l147 659l24 -2l-160 -695h-24z" />
    <glyph glyph-name="wacute" unicode="&#x1e83;" horiz-adv-x="702" 
d="M290 607q63 82 100 150h37q-53 -81 -115 -150h-22zM483 0l-132 445l-131 -445h-25l-146 521l25 2l134 -489l132 449h22l133 -449l134 489l24 -2l-146 -521h-24z" />
    <glyph glyph-name="Wdieresis" unicode="&#x1e84;" horiz-adv-x="773" 
d="M447 823q-22 0 -22 23t22 23q25 0 25 -23t-25 -23zM325 823q-23 0 -23 23t23 23q24 0 24 -23t-24 -23zM562 0l-169 574l-169 -574h-26l-158 695l25 2l147 -659l169 574h23l171 -574l147 659l24 -2l-160 -695h-24z" />
    <glyph glyph-name="wdieresis" unicode="&#x1e85;" horiz-adv-x="702" 
d="M412 649q-23 0 -23 23t23 23q24 0 24 -23t-24 -23zM290 649q-24 0 -24 23t24 23q23 0 23 -23q0 -10 -6.5 -16.5t-16.5 -6.5zM483 0l-132 445l-131 -445h-25l-146 521l25 2l134 -489l132 449h22l133 -449l134 489l24 -2l-146 -521h-24z" />
    <glyph glyph-name="Ygrave" unicode="&#x1ef2;" horiz-adv-x="586" 
d="M318 780q-59 66 -115 151h34q42 -73 101 -151h-20zM306 0h-26v275l-253 421h29l237 -397l236 397h29l-252 -421v-275z" />
    <glyph glyph-name="ygrave" unicode="&#x1ef3;" horiz-adv-x="490" 
d="M270 607q-62 69 -115 150h34q50 -85 102 -150h-21zM101 -181q-33 0 -58 8l5 24q32 -10 54 -10q42 0 66 25t44 79l21 56l-194 520l26 2l181 -492l181 492l26 -2l-221 -588q-23 -60 -53.5 -87t-77.5 -27z" />
    <glyph glyph-name="uni2000" unicode="&#x2000;" horiz-adv-x="493" 
 />
    <glyph glyph-name="uni2001" unicode="&#x2001;" horiz-adv-x="972" 
 />
    <glyph glyph-name="uni2002" unicode="&#x2002;" horiz-adv-x="493" 
 />
    <glyph glyph-name="uni2003" unicode="&#x2003;" horiz-adv-x="972" 
 />
    <glyph glyph-name="uni2004" unicode="&#x2004;" horiz-adv-x="333" 
 />
    <glyph glyph-name="uni2005" unicode="&#x2005;" horiz-adv-x="254" 
 />
    <glyph glyph-name="uni2007" unicode="&#x2007;" horiz-adv-x="667" 
 />
    <glyph glyph-name="uni2009" unicode="&#x2009;" horiz-adv-x="174" 
 />
    <glyph glyph-name="uni200A" unicode="&#x200a;" horiz-adv-x="110" 
 />
    <glyph glyph-name="uni200B" unicode="&#x200b;" horiz-adv-x="0" 
 />
    <glyph glyph-name="endash" unicode="&#x2013;" horiz-adv-x="626" 
d="M101 294v22h424v-22h-424z" />
    <glyph glyph-name="emdash" unicode="&#x2014;" horiz-adv-x="845" 
d="M101 294v22h643v-22h-643z" />
    <glyph glyph-name="horizontalbar" unicode="&#x2015;" horiz-adv-x="715" 
d="M0 303v22h715v-22h-715z" />
    <glyph glyph-name="quoteleft" unicode="&#x2018;" horiz-adv-x="227" 
d="M158 696q-33 -82 -42 -157h-33q13 78 54 157h21z" />
    <glyph glyph-name="quoteright" unicode="&#x2019;" horiz-adv-x="227" 
d="M66 539q34 85 42 157h32q-12 -82 -54 -157h-20z" />
    <glyph glyph-name="quotesinglbase" unicode="&#x201a;" horiz-adv-x="233" 
d="M66 -106q34 89 42 158h32q-12 -82 -54 -158h-20z" />
    <glyph glyph-name="quotereversed" unicode="&#x201b;" horiz-adv-x="408" 
d="M160 539h-21q-41 76 -54 157h33q6 -52 14 -80t28 -77z" />
    <glyph glyph-name="quotedblleft" unicode="&#x201c;" horiz-adv-x="354" 
d="M148 696q-14 -36 -19 -51t-11.5 -42t-10.5 -64h-34q13 80 55 157h20zM276 696q-14 -35 -19.5 -51t-12 -42.5t-10.5 -63.5h-33q6 37 15 67t16.5 45t23.5 45h20z" />
    <glyph glyph-name="quotedblright" unicode="&#x201d;" horiz-adv-x="354" 
d="M202 539q14 35 19.5 51t12 42.5t10.5 63.5h33q-13 -81 -54 -157h-21zM74 539q20 49 28.5 76.5t14.5 80.5h32q-8 -54 -20 -85.5t-34 -71.5h-21z" />
    <glyph glyph-name="quotedblbase" unicode="&#x201e;" horiz-adv-x="361" 
d="M193 -103q34 87 42 158h33q-13 -81 -55 -158h-20zM65 -103q15 37 20.5 51.5t12 42.5t10.5 64h32q-8 -54 -20 -85.5t-35 -72.5h-20z" />
    <glyph glyph-name="dagger" unicode="&#x2020;" horiz-adv-x="761" 
d="M370 -175v674h-167l-29 -194h-21l28 219h188l-2 172h30l-2 -172h188l28 -219h-21l-29 194h-166v-674h-25z" />
    <glyph glyph-name="daggerdbl" unicode="&#x2021;" horiz-adv-x="767" 
d="M370 -175l2 172h-191l-28 181h21l29 -156h169v476h-169l-29 -155h-21l28 181h191l-2 172h30l-2 -172h191l28 -181h-20l-30 155h-170v-476h170l30 156h20l-28 -181h-191l2 -172h-30z" />
    <glyph glyph-name="bullet" unicode="&#x2022;" horiz-adv-x="318" 
d="M159 287q-25 0 -40 15.5t-15 44.5q0 27 15 41.5t40 14.5t40 -14.5t15 -42.5t-15 -43.5t-40 -15.5z" />
    <glyph glyph-name="ellipsis" unicode="&#x2026;" horiz-adv-x="745" 
d="M116 -3q-12 0 -19.5 7.5t-7.5 20.5t7.5 20.5t19.5 7.5q28 0 28 -28t-28 -28zM371 -3q-12 0 -19.5 7.5t-7.5 20.5t7.5 20.5t19.5 7.5q28 0 28 -28t-28 -28zM628 -3q-12 0 -19.5 7.5t-7.5 20.5t7.5 20.5t19.5 7.5q28 0 28 -28t-28 -28z" />
    <glyph glyph-name="perthousand" unicode="&#x2030;" horiz-adv-x="1100" 
d="M195 338q-61 0 -97 48t-36 136q0 86 36.5 134.5t96.5 48.5t96.5 -48t36.5 -133q0 -89 -36.5 -137.5t-96.5 -48.5zM176 1l399 696l26 -2l-400 -696zM195 359q51 0 81 43t30 122q0 75 -30 118.5t-81 43.5t-81.5 -43.5t-30.5 -120.5q0 -78 30 -120.5t82 -42.5zM904 -9
q-60 0 -96 47t-36 132q0 89 36.5 138.5t95.5 49.5q62 0 98 -48.5t36 -137.5q0 -86 -36.5 -133.5t-97.5 -47.5zM581 -9q-60 0 -96 47t-36 132q0 90 36 139t96 49q62 0 97.5 -48.5t35.5 -137.5q0 -86 -36 -133.5t-97 -47.5zM904 11q52 0 82 42t30 119q0 78 -30 122t-82 44
q-51 0 -80.5 -44t-29.5 -124q0 -76 29.5 -117.5t80.5 -41.5zM581 11q51 0 81.5 42t30.5 119q0 78 -30 122t-82 44q-51 0 -80.5 -44t-29.5 -124q0 -76 29.5 -117.5t80.5 -41.5z" />
    <glyph glyph-name="minute" unicode="&#x2032;" horiz-adv-x="238" 
d="M66 539q34 85 42 157h32q-12 -82 -54 -157h-20z" />
    <glyph glyph-name="second" unicode="&#x2033;" horiz-adv-x="371" 
d="M202 539q14 35 19.5 51t12 42.5t10.5 63.5h33q-13 -81 -54 -157h-21zM74 539q20 49 28.5 76.5t14.5 80.5h32q-8 -54 -20 -85.5t-34 -71.5h-21z" />
    <glyph glyph-name="guilsinglleft" unicode="&#x2039;" horiz-adv-x="386" 
d="M316 105l-246 186v28l246 186v-28l-227 -172l227 -172v-28z" />
    <glyph glyph-name="guilsinglright" unicode="&#x203a;" horiz-adv-x="386" 
d="M70 105v28l227 172l-227 172v28l246 -186v-28z" />
    <glyph glyph-name="exclamdbl" unicode="&#x203c;" horiz-adv-x="579" 
d="M49 185l-6 511h31l-6 -511h-19zM349 185l-7 511h32l-6 -511h-19zM57 -4q-25 0 -25 27q0 28 25 28q26 0 26 -28q0 -27 -26 -27zM357 -4q-26 0 -26 27q0 28 26 28t26 -28q0 -27 -26 -27z" />
    <glyph glyph-name="fraction" unicode="&#x2044;" horiz-adv-x="262" 
d="M-42 0l320 696h25l-319 -696h-26z" />
    <glyph glyph-name="Euro" unicode="&#x20ac;" horiz-adv-x="655" 
d="M597 164q-18 -80 -78.5 -126.5t-153.5 -46.5q-100 0 -166.5 65.5t-85.5 197.5h-81v21h79q-4 33 -4 79q0 34 3 66h-78v21h80q17 131 84.5 197.5t169.5 66.5q91 0 150.5 -48t79.5 -134l-25 -6q-39 165 -205 165q-92 0 -152 -60t-76 -181h253v-21h-256q-3 -32 -3 -66
q0 -46 4 -79h255v-21h-252q17 -121 76 -180.5t150 -59.5q84 0 137 41t70 115z" />
    <glyph glyph-name="lsquare" unicode="&#x2113;" horiz-adv-x="478" 
d="M224 266q50 0 84 19t41 54l35 227q8 53 -15 78.5t-85 25.5q-53 0 -86.5 -22t-37.5 -53l-40 -228q-6 -48 17.5 -74.5t86.5 -26.5zM329 16q-49 -22 -108 -22q-81 0 -125 43.5t-33 112.5l70 430q10 57 51.5 91t99.5 34q68 0 101 -44.5t24 -107.5l-32 -198
q-12 -68 -53.5 -103t-106.5 -35q-36 0 -66 13t-43 38l-17 -101q-9 -59 23 -93.5t97 -34.5q64 0 111 21z" />
    <glyph glyph-name="numero" unicode="&#x2116;" horiz-adv-x="888" 
d="M673 277q-68 0 -107.5 54.5t-39.5 161.5q0 102 39.5 156t107.5 54q66 0 105.5 -54.5t39.5 -156.5q0 -105 -39.5 -160t-105.5 -55zM124 660v-660h-25v696h38l285 -664v664h26v-698h-39zM673 301q56 0 87.5 48t31.5 143q0 91 -32 139t-87 48q-57 0 -88.5 -47.5
t-31.5 -138.5q0 -95 31.5 -143.5t88.5 -48.5z" />
    <glyph glyph-name="trademark" unicode="&#x2122;" horiz-adv-x="599" 
d="M135 408v273h-95v16h207v-17h-94v-272h-18zM307 674v-266h-17v290h25l94 -215l93 215h24v-290h-17v266l-92 -211h-17z" />
    <glyph glyph-name="Ohm" unicode="&#x2126;" horiz-adv-x="663" 
 />
    <glyph glyph-name="oneeighth" unicode="&#x215b;" horiz-adv-x="933" 
d="M298 0l320 696h24l-319 -696h-25z" />
    <glyph glyph-name="threeeighths" unicode="&#x215c;" horiz-adv-x="967" 
d="M312 0l320 696h25l-320 -696h-25z" />
    <glyph glyph-name="fiveeighths" unicode="&#x215d;" horiz-adv-x="967" 
d="M312 0l320 696h25l-320 -696h-25z" />
    <glyph glyph-name="seveneighths" unicode="&#x215e;" horiz-adv-x="963" 
d="M277 0l321 696h24l-319 -696h-26z" />
    <glyph glyph-name="minus" unicode="&#x2212;" horiz-adv-x="626" 
d="M101 294v22h424v-22h-424z" />
    <glyph glyph-name="uni2215" unicode="&#x2215;" horiz-adv-x="262" 
d="M-42 0l320 696h25l-319 -696h-26z" />
    <glyph glyph-name="uni2219" unicode="&#x2219;" horiz-adv-x="233" 
d="M116 314q-12 0 -19.5 8t-7.5 20q0 13 8 21t19 8q13 0 20.5 -8t7.5 -21q0 -28 -28 -28z" />
    <glyph glyph-name="approxequal" unicode="&#x2248;" horiz-adv-x="709" 
d="M498 343q-49 0 -80 28.5t-70 102.5q-38 69 -65 93.5t-69 24.5q-44 0 -69 -36t-25 -104v-98h-23v99q0 78 32 120.5t85 42.5q47 0 78.5 -27t68.5 -95q41 -76 67.5 -102t69.5 -26q45 0 69.5 35t24.5 100v104h23v-106q0 -75 -31.5 -115.5t-85.5 -40.5zM498 -3q-49 0 -80 28.5
t-70 102.5q-38 69 -65.5 94t-68.5 25q-44 0 -69 -36.5t-25 -104.5v-99h-23v101q0 76 32 118.5t85 42.5q48 0 79.5 -26.5t67.5 -95.5q41 -75 68 -101.5t69 -26.5q44 0 69 34.5t25 100.5v104h23v-106q0 -74 -32 -114.5t-85 -40.5z" />
    <glyph glyph-name="notequal" unicode="&#x2260;" horiz-adv-x="626" 
d="M525 216h-235l-40 -140h-23l40 140h-166v23h173l67 233h-240v22h247l42 146l22 -1l-42 -145h155v-22h-162l-66 -233h228v-23z" />
    <glyph glyph-name="lessequal" unicode="&#x2264;" horiz-adv-x="626" 
d="M530 127l-437 228v22l437 228l4 -25l-414 -214l414 -215zM93 0v22h440v-22h-440z" />
    <glyph glyph-name="greaterequal" unicode="&#x2265;" horiz-adv-x="626" 
d="M97 127l-4 24l415 215l-415 214l4 25l437 -228v-22zM534 0h-438v22h438v-22z" />
    <glyph glyph-name="commaaccent" unicode="&#xf6c3;" horiz-adv-x="528" 
d="M217 -211q31 66 45 132h36q-17 -60 -60 -132h-21z" />
    <glyph glyph-name="apple" unicode="&#xf8ff;" horiz-adv-x="590" 
d="M338 450l165 23h69v-15h-69l-163 -21l43 -72h120l38 -101l27 -50l-12 -8l-28 53l-35 93h-106l23 -161h61l11 -189l24 -63l-12 -6l-27 65l-10 178h-49l-70 -204h-85l-71 204h-50l-9 -178l-30 -74l-10 15l25 63l12 189h61l21 161h-105l-37 -100l-25 -44l-13 6l28 50l36 101
h121l43 72l-164 21h-68v15h68l167 -23v38l-31 19v43l49 12v43l-102 52l-49 8l1 12l48 -8l127 -62l127 62l47 8l2 -12l-49 -12l-105 -50v-41l51 -12v-43l-31 -19v-38z" />
    <glyph glyph-name="uniFEFF" unicode="&#xfeff;" horiz-adv-x="0" 
 />
    <glyph glyph-name="dot" horiz-adv-x="0" 
d="M0 621q-53 0 -53 50q0 52 53 52t53 -53q0 -49 -53 -49z" />
    <glyph glyph-name="dot.round" horiz-adv-x="0" 
d="M0 621q-53 0 -53 50q0 52 53 52t53 -53q0 -49 -53 -49z" />
    <glyph glyph-name="dot.square" horiz-adv-x="0" 
d="M-46 626v91h92v-91h-92z" />
    <glyph glyph-name="space.frac" horiz-adv-x="262" 
 />
    <glyph glyph-name="caron.salt" horiz-adv-x="528" 
d="M225 554q29 76 38 142h29q-12 -74 -48 -142h-19z" />
    <glyph glyph-name="caroncmb.salt" horiz-adv-x="0" 
d="M-39 554q30 74 39 142h28q-12 -77 -47 -142h-20z" />
    <glyph glyph-name="I.i" horiz-adv-x="242" 
d="M109 0v696h25v-696h-25z" />
    <glyph glyph-name="Igrave.i" horiz-adv-x="242" 
d="M143 780q-63 72 -115 151h34q43 -76 102 -151h-21zM109 0v696h25v-696h-25z" />
    <glyph glyph-name="Iacute.i" horiz-adv-x="242" 
d="M79 780q58 76 101 151h36q-44 -69 -114 -151h-23zM109 0v696h25v-696h-25z" />
    <glyph glyph-name="Icircumflex.i" horiz-adv-x="242" 
d="M-26 792l-13 14q83 63 149 129h20q72 -69 150 -129l-12 -14q-70 48 -148 120q-66 -63 -146 -120zM109 0v696h25v-696h-25z" />
    <glyph glyph-name="Idieresis.i" horiz-adv-x="242" 
d="M182 823q-22 0 -22 23t22 23q24 0 24 -23t-24 -23zM60 823q-23 0 -23 23t23 23t23 -23t-23 -23zM109 0v696h25v-696h-25z" />
    <glyph glyph-name="Itilde.i" horiz-adv-x="242" 
d="M195 796q-46 0 -80 66q-11 20 -18.5 31t-21 21.5t-28.5 10.5q-29 0 -45 -30t-16 -80v-12h-23v13q0 58 23 94t63 36q46 0 80 -66q33 -63 68 -63q28 0 43.5 29.5t15.5 80.5v12h22v-13q0 -59 -21.5 -94.5t-61.5 -35.5zM109 0v696h25v-696h-25z" />
    <glyph glyph-name="Imacron.i" horiz-adv-x="242" 
d="M-15 841v22h272v-22h-272zM109 0v696h25v-696h-25z" />
    <glyph glyph-name="Ibreve.i" horiz-adv-x="242" 
d="M121 797q-68 0 -107 33.5t-40 103.5h22q1 -118 125 -118t125 118h22q-1 -70 -40 -103.5t-107 -33.5zM109 0v696h25v-696h-25z" />
    <glyph glyph-name="Iogonek.i" horiz-adv-x="242" 
d="M200 -174q-30 -8 -61 -8q-44 0 -72.5 22.5t-28.5 58.5q0 32 20 61.5t51 47.5v688h25v-696h-13q-63 -39 -63 -96q0 -30 23.5 -48t60.5 -18q33 0 56 9z" />
    <glyph glyph-name="Idotaccent.i" horiz-adv-x="242" 
d="M121 823q-23 0 -23 23t23 23t23 -23t-23 -23zM109 0v696h25v-696h-25z" />
    <glyph glyph-name="IJ.i" horiz-adv-x="808" 
d="M109 0v696h25v-696h-25zM505 -9q-89 0 -145 58.5t-62 161.5l25 3q6 -94 54 -147t128 -53q83 0 130 58.5t47 148.5v475h25v-475q0 -101 -54 -165.5t-148 -64.5z" />
    <glyph glyph-name="a.t" horiz-adv-x="514" 
d="M222 11q49 0 96 24.5t81 64.5v159h-176q-61 0 -98.5 -33t-37.5 -91t38 -91t97 -33zM420 0q-20 29 -20 76q-35 -40 -84 -63.5t-100 -23.5q-66 0 -110 38.5t-44 105.5q0 69 44 108t116 39h177v85q0 70 -39.5 107t-109.5 37q-111 0 -155 -104l-22 12q50 115 179 115
q79 0 125.5 -42.5t46.5 -121.5v-284q0 -51 20 -84h-24z" />
    <glyph glyph-name="agrave.t" horiz-adv-x="514" 
d="M260 607q-58 63 -115 150h34q43 -76 101 -150h-20zM222 11q49 0 96 24.5t81 64.5v159h-176q-61 0 -98.5 -33t-37.5 -91t38 -91t97 -33zM420 0q-20 29 -20 76q-35 -40 -84 -63.5t-100 -23.5q-66 0 -110 38.5t-44 105.5q0 69 44 108t116 39h177v85q0 70 -39.5 107
t-109.5 37q-111 0 -155 -104l-22 12q50 115 179 115q79 0 125.5 -42.5t46.5 -121.5v-284q0 -51 20 -84h-24z" />
    <glyph glyph-name="aacute.t" horiz-adv-x="514" 
d="M202 607q57 73 101 150h36q-46 -72 -114 -150h-23zM222 11q49 0 96 24.5t81 64.5v159h-176q-61 0 -98.5 -33t-37.5 -91t38 -91t97 -33zM420 0q-20 29 -20 76q-35 -40 -84 -63.5t-100 -23.5q-66 0 -110 38.5t-44 105.5q0 69 44 108t116 39h177v85q0 70 -39.5 107
t-109.5 37q-111 0 -155 -104l-22 12q50 115 179 115q79 0 125.5 -42.5t46.5 -121.5v-284q0 -51 20 -84h-24z" />
    <glyph glyph-name="acircumflex.t" horiz-adv-x="514" 
d="M105 618l-13 14q83 63 149 129h20q74 -71 151 -129l-13 -14q-74 52 -148 120q-70 -67 -146 -120zM222 11q49 0 96 24.5t81 64.5v159h-176q-61 0 -98.5 -33t-37.5 -91t38 -91t97 -33zM420 0q-20 29 -20 76q-35 -40 -84 -63.5t-100 -23.5q-66 0 -110 38.5t-44 105.5
q0 69 44 108t116 39h177v85q0 70 -39.5 107t-109.5 37q-111 0 -155 -104l-22 12q50 115 179 115q79 0 125.5 -42.5t46.5 -121.5v-284q0 -51 20 -84h-24z" />
    <glyph glyph-name="atilde.t" horiz-adv-x="514" 
d="M323 622q-46 0 -80 66q-33 63 -68 63q-29 0 -45 -30t-16 -80v-12h-23v13q0 58 23 94t63 36q46 0 80 -66q33 -63 68 -63q28 0 43.5 29.5t15.5 80.5v12h23v-13q0 -59 -22 -94.5t-62 -35.5zM222 11q49 0 96 24.5t81 64.5v159h-176q-61 0 -98.5 -33t-37.5 -91t38 -91t97 -33z
M420 0q-20 29 -20 76q-35 -40 -84 -63.5t-100 -23.5q-66 0 -110 38.5t-44 105.5q0 69 44 108t116 39h177v85q0 70 -39.5 107t-109.5 37q-111 0 -155 -104l-22 12q50 115 179 115q79 0 125.5 -42.5t46.5 -121.5v-284q0 -51 20 -84h-24z" />
    <glyph glyph-name="adieresis.t" horiz-adv-x="514" 
d="M319 649q-22 0 -22 23t22 23q24 0 24 -23t-24 -23zM197 649q-23 0 -23 23t23 23q24 0 24 -23q0 -10 -7 -16.5t-17 -6.5zM222 11q49 0 96 24.5t81 64.5v159h-176q-61 0 -98.5 -33t-37.5 -91t38 -91t97 -33zM420 0q-20 29 -20 76q-35 -40 -84 -63.5t-100 -23.5
q-66 0 -110 38.5t-44 105.5q0 69 44 108t116 39h177v85q0 70 -39.5 107t-109.5 37q-111 0 -155 -104l-22 12q50 115 179 115q79 0 125.5 -42.5t46.5 -121.5v-284q0 -51 20 -84h-24z" />
    <glyph glyph-name="aring.t" horiz-adv-x="514" 
d="M243 610q-47 0 -74.5 28.5t-27.5 81.5t27.5 81.5t74.5 28.5t74.5 -28.5t27.5 -81.5t-27.5 -81.5t-74.5 -28.5zM243 628q38 0 59.5 24t21.5 68q0 43 -21.5 67.5t-59.5 24.5t-59.5 -24.5t-21.5 -67.5q0 -44 21.5 -68t59.5 -24zM222 11q49 0 96 24.5t81 64.5v159h-176
q-61 0 -98.5 -33t-37.5 -91t38 -91t97 -33zM420 0q-20 29 -20 76q-35 -40 -84 -63.5t-100 -23.5q-66 0 -110 38.5t-44 105.5q0 69 44 108t116 39h177v85q0 70 -39.5 107t-109.5 37q-111 0 -155 -104l-22 12q50 115 179 115q79 0 125.5 -42.5t46.5 -121.5v-284q0 -51 20 -84
h-24z" />
    <glyph glyph-name="amacron.t" horiz-adv-x="514" 
d="M127 669v21h272v-21h-272zM222 11q49 0 96 24.5t81 64.5v159h-176q-61 0 -98.5 -33t-37.5 -91t38 -91t97 -33zM420 0q-20 29 -20 76q-35 -40 -84 -63.5t-100 -23.5q-66 0 -110 38.5t-44 105.5q0 69 44 108t116 39h177v85q0 70 -39.5 107t-109.5 37q-111 0 -155 -104
l-22 12q50 115 179 115q79 0 125.5 -42.5t46.5 -121.5v-284q0 -51 20 -84h-24z" />
    <glyph glyph-name="abreve.t" horiz-adv-x="514" 
d="M263 623q-68 0 -107 34t-40 103h22q1 -118 125 -118t125 118h23q-1 -69 -40.5 -103t-107.5 -34zM222 11q49 0 96 24.5t81 64.5v159h-176q-61 0 -98.5 -33t-37.5 -91t38 -91t97 -33zM420 0q-20 29 -20 76q-35 -40 -84 -63.5t-100 -23.5q-66 0 -110 38.5t-44 105.5
q0 69 44 108t116 39h177v85q0 70 -39.5 107t-109.5 37q-111 0 -155 -104l-22 12q50 115 179 115q79 0 125.5 -42.5t46.5 -121.5v-284q0 -51 20 -84h-24z" />
    <glyph glyph-name="aogonek.t" horiz-adv-x="514" 
d="M222 11q49 0 96 24.5t81 64.5v159h-176q-61 0 -98.5 -33t-37.5 -91t38 -91t97 -33zM507 -174q-30 -8 -61 -8q-44 0 -72.5 22.5t-28.5 58.5q0 32 20 61.5t50 46.5q-15 34 -15 69q-35 -40 -84 -63.5t-100 -23.5q-66 0 -110 38.5t-44 105.5q0 69 44 108t116 39h177v85
q0 70 -39.5 107t-109.5 37q-111 0 -155 -104l-22 12q50 115 179 115q79 0 125.5 -42.5t46.5 -121.5v-284q0 -51 20 -84h-16q-63 -39 -63 -96q0 -30 23.5 -48t60.5 -18q33 0 56 9z" />
    <glyph glyph-name="aringacute.t" horiz-adv-x="514" 
d="M234 868q66 88 100 150h37q-49 -75 -115 -150h-22zM248 610q-47 0 -74.5 28.5t-27.5 81.5t27.5 81.5t74.5 28.5t74.5 -28.5t27.5 -81.5t-27.5 -81.5t-74.5 -28.5zM248 628q38 0 59.5 24t21.5 68q0 43 -21.5 67.5t-59.5 24.5t-59.5 -24.5t-21.5 -67.5q0 -44 21.5 -68
t59.5 -24zM222 11q49 0 96 24.5t81 64.5v159h-176q-61 0 -98.5 -33t-37.5 -91t38 -91t97 -33zM420 0q-20 29 -20 76q-35 -40 -84 -63.5t-100 -23.5q-66 0 -110 38.5t-44 105.5q0 69 44 108t116 39h177v85q0 70 -39.5 107t-109.5 37q-111 0 -155 -104l-22 12q50 115 179 115
q79 0 125.5 -42.5t46.5 -121.5v-284q0 -51 20 -84h-24z" />
    <glyph glyph-name="a.ssa" horiz-adv-x="552" 
d="M288 508q-197 0 -197 -260q0 -114 45.5 -173t119.5 -59q97 0 172 119v332q-62 41 -140 41zM285 532q76 0 144 -41v31h24v-522h-25v109q-77 -117 -178 -117q-82 0 -133 66t-51 190q0 148 59.5 216t159.5 68z" />
    <glyph glyph-name="agrave.ssa" horiz-adv-x="552" 
d="M260 607q-58 63 -115 150h34q43 -76 101 -150h-20zM288 508q-197 0 -197 -260q0 -114 45.5 -173t119.5 -59q97 0 172 119v332q-62 41 -140 41zM285 532q76 0 144 -41v31h24v-522h-25v109q-77 -117 -178 -117q-82 0 -133 66t-51 190q0 148 59.5 216t159.5 68z" />
    <glyph glyph-name="aacute.ssa" horiz-adv-x="552" 
d="M202 607q57 73 101 150h36q-46 -72 -114 -150h-23zM288 508q-197 0 -197 -260q0 -114 45.5 -173t119.5 -59q97 0 172 119v332q-62 41 -140 41zM285 532q76 0 144 -41v31h24v-522h-25v109q-77 -117 -178 -117q-82 0 -133 66t-51 190q0 148 59.5 216t159.5 68z" />
    <glyph glyph-name="acircumflex.ssa" horiz-adv-x="552" 
d="M105 618l-13 14q83 63 149 129h20q74 -71 151 -129l-13 -14q-74 52 -148 120q-70 -67 -146 -120zM288 508q-197 0 -197 -260q0 -114 45.5 -173t119.5 -59q97 0 172 119v332q-62 41 -140 41zM285 532q76 0 144 -41v31h24v-522h-25v109q-77 -117 -178 -117q-82 0 -133 66
t-51 190q0 148 59.5 216t159.5 68z" />
    <glyph glyph-name="atilde.ssa" horiz-adv-x="552" 
d="M323 622q-46 0 -80 66q-33 63 -68 63q-29 0 -45 -30t-16 -80v-12h-23v13q0 58 23 94t63 36q46 0 80 -66q33 -63 68 -63q28 0 43.5 29.5t15.5 80.5v12h23v-13q0 -59 -22 -94.5t-62 -35.5zM288 508q-197 0 -197 -260q0 -114 45.5 -173t119.5 -59q97 0 172 119v332
q-62 41 -140 41zM285 532q76 0 144 -41v31h24v-522h-25v109q-77 -117 -178 -117q-82 0 -133 66t-51 190q0 148 59.5 216t159.5 68z" />
    <glyph glyph-name="adieresis.ssa" horiz-adv-x="552" 
d="M309 649q-22 0 -22 23t22 23q24 0 24 -23t-24 -23zM187 649q-23 0 -23 23t23 23t23 -23q0 -10 -6.5 -16.5t-16.5 -6.5zM288 508q-197 0 -197 -260q0 -114 45.5 -173t119.5 -59q97 0 172 119v332q-62 41 -140 41zM285 532q76 0 144 -41v31h24v-522h-25v109
q-77 -117 -178 -117q-82 0 -133 66t-51 190q0 148 59.5 216t159.5 68z" />
    <glyph glyph-name="aring.ssa" horiz-adv-x="552" 
d="M243 610q-47 0 -74.5 28.5t-27.5 81.5t27.5 81.5t74.5 28.5t74.5 -28.5t27.5 -81.5t-27.5 -81.5t-74.5 -28.5zM243 628q38 0 59.5 24t21.5 68q0 43 -21.5 67.5t-59.5 24.5t-59.5 -24.5t-21.5 -67.5q0 -44 21.5 -68t59.5 -24zM288 508q-197 0 -197 -260q0 -114 45.5 -173
t119.5 -59q97 0 172 119v332q-62 41 -140 41zM285 532q76 0 144 -41v31h24v-522h-25v109q-77 -117 -178 -117q-82 0 -133 66t-51 190q0 148 59.5 216t159.5 68z" />
    <glyph glyph-name="amacron.ssa" horiz-adv-x="552" 
d="M127 669v21h272v-21h-272zM288 508q-197 0 -197 -260q0 -114 45.5 -173t119.5 -59q97 0 172 119v332q-62 41 -140 41zM285 532q76 0 144 -41v31h24v-522h-25v109q-77 -117 -178 -117q-82 0 -133 66t-51 190q0 148 59.5 216t159.5 68z" />
    <glyph glyph-name="abreve.ssa" horiz-adv-x="552" 
d="M263 623q-68 0 -107 34t-40 103h22q1 -118 125 -118t125 118h23q-1 -69 -40.5 -103t-107.5 -34zM288 508q-197 0 -197 -260q0 -114 45.5 -173t119.5 -59q97 0 172 119v332q-62 41 -140 41zM285 532q76 0 144 -41v31h24v-522h-25v109q-77 -117 -178 -117q-82 0 -133 66
t-51 190q0 148 59.5 216t159.5 68z" />
    <glyph glyph-name="aogonek.ssa" horiz-adv-x="552" 
d="M288 508q-197 0 -197 -260q0 -114 45.5 -173t119.5 -59q97 0 172 119v332q-62 41 -140 41zM518 -174q-30 -8 -61 -8q-44 0 -72.5 22.5t-28.5 58.5q0 33 20.5 62t51.5 47v101q-77 -117 -178 -117q-82 0 -133 66t-51 190q0 148 59.5 216t159.5 68q76 0 144 -41v31h24v-522
h-14q-63 -39 -63 -96q0 -30 23.5 -48t60.5 -18q33 0 56 9z" />
    <glyph glyph-name="aringacute.ssa" horiz-adv-x="552" 
d="M234 868q66 88 100 150h37q-49 -75 -115 -150h-22zM248 610q-47 0 -74.5 28.5t-27.5 81.5t27.5 81.5t74.5 28.5t74.5 -28.5t27.5 -81.5t-27.5 -81.5t-74.5 -28.5zM248 628q38 0 59.5 24t21.5 68q0 43 -21.5 67.5t-59.5 24.5t-59.5 -24.5t-21.5 -67.5q0 -44 21.5 -68
t59.5 -24zM288 508q-197 0 -197 -260q0 -114 45.5 -173t119.5 -59q97 0 172 119v332q-62 41 -140 41zM285 532q76 0 144 -41v31h24v-522h-25v109q-77 -117 -178 -117q-82 0 -133 66t-51 190q0 148 59.5 216t159.5 68z" />
    <glyph glyph-name="a.t_c" horiz-adv-x="516" 
d="M227 11q65 0 119 37.5t55 95.5v116h-178q-66 -1 -101.5 -32.5t-35.5 -91.5q0 -56 39.5 -90.5t101.5 -34.5zM223 -11q-69 0 -115 40t-46 106q0 71 41 109t119 38h179v80q0 72 -38.5 109.5t-106.5 37.5q-67 0 -107.5 -33t-51.5 -94h-25q11 70 59.5 110t124.5 40
q78 0 124.5 -44t46.5 -125v-279q0 -52 19 -84h-24q-20 29 -20 76v17q-17 -45 -68 -74.5t-111 -29.5z" />
    <glyph glyph-name="agrave.t_c" horiz-adv-x="516" 
d="M260 607q-58 63 -115 150h34q43 -76 101 -150h-20zM227 11q65 0 119 37.5t55 95.5v116h-178q-66 -1 -101.5 -32.5t-35.5 -91.5q0 -56 39.5 -90.5t101.5 -34.5zM223 -11q-69 0 -115 40t-46 106q0 71 41 109t119 38h179v80q0 72 -38.5 109.5t-106.5 37.5q-67 0 -107.5 -33
t-51.5 -94h-25q11 70 59.5 110t124.5 40q78 0 124.5 -44t46.5 -125v-279q0 -52 19 -84h-24q-20 29 -20 76v17q-17 -45 -68 -74.5t-111 -29.5z" />
    <glyph glyph-name="aacute.t_c" horiz-adv-x="516" 
d="M202 607q57 73 101 150h36q-46 -72 -114 -150h-23zM227 11q65 0 119 37.5t55 95.5v116h-178q-66 -1 -101.5 -32.5t-35.5 -91.5q0 -56 39.5 -90.5t101.5 -34.5zM223 -11q-69 0 -115 40t-46 106q0 71 41 109t119 38h179v80q0 72 -38.5 109.5t-106.5 37.5q-67 0 -107.5 -33
t-51.5 -94h-25q11 70 59.5 110t124.5 40q78 0 124.5 -44t46.5 -125v-279q0 -52 19 -84h-24q-20 29 -20 76v17q-17 -45 -68 -74.5t-111 -29.5z" />
    <glyph glyph-name="acircumflex.t_c" horiz-adv-x="516" 
d="M105 618l-13 14q83 63 149 129h20q74 -71 151 -129l-13 -14q-74 52 -148 120q-70 -67 -146 -120zM227 11q65 0 119 37.5t55 95.5v116h-178q-66 -1 -101.5 -32.5t-35.5 -91.5q0 -56 39.5 -90.5t101.5 -34.5zM223 -11q-69 0 -115 40t-46 106q0 71 41 109t119 38h179v80
q0 72 -38.5 109.5t-106.5 37.5q-67 0 -107.5 -33t-51.5 -94h-25q11 70 59.5 110t124.5 40q78 0 124.5 -44t46.5 -125v-279q0 -52 19 -84h-24q-20 29 -20 76v17q-17 -45 -68 -74.5t-111 -29.5z" />
    <glyph glyph-name="atilde.t_c" horiz-adv-x="516" 
d="M323 622q-46 0 -80 66q-33 63 -68 63q-29 0 -45 -30t-16 -80v-12h-23v13q0 58 23 94t63 36q46 0 80 -66q33 -63 68 -63q28 0 43.5 29.5t15.5 80.5v12h23v-13q0 -59 -22 -94.5t-62 -35.5zM227 11q65 0 119 37.5t55 95.5v116h-178q-66 -1 -101.5 -32.5t-35.5 -91.5
q0 -56 39.5 -90.5t101.5 -34.5zM223 -11q-69 0 -115 40t-46 106q0 71 41 109t119 38h179v80q0 72 -38.5 109.5t-106.5 37.5q-67 0 -107.5 -33t-51.5 -94h-25q11 70 59.5 110t124.5 40q78 0 124.5 -44t46.5 -125v-279q0 -52 19 -84h-24q-20 29 -20 76v17q-17 -45 -68 -74.5
t-111 -29.5z" />
    <glyph glyph-name="adieresis.t_c" horiz-adv-x="516" 
d="M309 649q-22 0 -22 23t22 23q24 0 24 -23t-24 -23zM187 649q-23 0 -23 23t23 23t23 -23q0 -10 -6.5 -16.5t-16.5 -6.5zM227 11q65 0 119 37.5t55 95.5v116h-178q-66 -1 -101.5 -32.5t-35.5 -91.5q0 -56 39.5 -90.5t101.5 -34.5zM223 -11q-69 0 -115 40t-46 106
q0 71 41 109t119 38h179v80q0 72 -38.5 109.5t-106.5 37.5q-67 0 -107.5 -33t-51.5 -94h-25q11 70 59.5 110t124.5 40q78 0 124.5 -44t46.5 -125v-279q0 -52 19 -84h-24q-20 29 -20 76v17q-17 -45 -68 -74.5t-111 -29.5z" />
    <glyph glyph-name="aring.t_c" horiz-adv-x="516" 
d="M243 610q-47 0 -74.5 28.5t-27.5 81.5t27.5 81.5t74.5 28.5t74.5 -28.5t27.5 -81.5t-27.5 -81.5t-74.5 -28.5zM243 628q38 0 59.5 24t21.5 68q0 43 -21.5 67.5t-59.5 24.5t-59.5 -24.5t-21.5 -67.5q0 -44 21.5 -68t59.5 -24zM227 11q65 0 119 37.5t55 95.5v116h-178
q-66 -1 -101.5 -32.5t-35.5 -91.5q0 -56 39.5 -90.5t101.5 -34.5zM223 -11q-69 0 -115 40t-46 106q0 71 41 109t119 38h179v80q0 72 -38.5 109.5t-106.5 37.5q-67 0 -107.5 -33t-51.5 -94h-25q11 70 59.5 110t124.5 40q78 0 124.5 -44t46.5 -125v-279q0 -52 19 -84h-24
q-20 29 -20 76v17q-17 -45 -68 -74.5t-111 -29.5z" />
    <glyph glyph-name="amacron.t_c" horiz-adv-x="516" 
d="M127 669v21h272v-21h-272zM227 11q65 0 119 37.5t55 95.5v116h-178q-66 -1 -101.5 -32.5t-35.5 -91.5q0 -56 39.5 -90.5t101.5 -34.5zM223 -11q-69 0 -115 40t-46 106q0 71 41 109t119 38h179v80q0 72 -38.5 109.5t-106.5 37.5q-67 0 -107.5 -33t-51.5 -94h-25
q11 70 59.5 110t124.5 40q78 0 124.5 -44t46.5 -125v-279q0 -52 19 -84h-24q-20 29 -20 76v17q-17 -45 -68 -74.5t-111 -29.5z" />
    <glyph glyph-name="abreve.t_c" horiz-adv-x="516" 
d="M263 623q-68 0 -107 34t-40 103h22q1 -118 125 -118t125 118h23q-1 -69 -40.5 -103t-107.5 -34zM227 11q65 0 119 37.5t55 95.5v116h-178q-66 -1 -101.5 -32.5t-35.5 -91.5q0 -56 39.5 -90.5t101.5 -34.5zM223 -11q-69 0 -115 40t-46 106q0 71 41 109t119 38h179v80
q0 72 -38.5 109.5t-106.5 37.5q-67 0 -107.5 -33t-51.5 -94h-25q11 70 59.5 110t124.5 40q78 0 124.5 -44t46.5 -125v-279q0 -52 19 -84h-24q-20 29 -20 76v17q-17 -45 -68 -74.5t-111 -29.5z" />
    <glyph glyph-name="aogonek.t_c" horiz-adv-x="516" 
d="M227 11q65 0 119 37.5t55 95.5v116h-178q-66 -1 -101.5 -32.5t-35.5 -91.5q0 -56 39.5 -90.5t101.5 -34.5zM507 -174q-30 -8 -61 -8q-44 0 -72.5 22.5t-28.5 58.5q0 33 20.5 62t51.5 47q-15 30 -15 68v17q-17 -45 -68 -74.5t-111 -29.5q-69 0 -115 40t-46 106
q0 71 41 109t119 38h179v80q0 72 -38.5 109.5t-106.5 37.5q-67 0 -107.5 -33t-51.5 -94h-25q11 70 59.5 110t124.5 40q78 0 124.5 -44t46.5 -125v-279q0 -52 19 -84h-18q-63 -39 -63 -96q0 -30 23.5 -48t60.5 -18q33 0 56 9z" />
    <glyph glyph-name="aringacute.t_c" horiz-adv-x="516" 
d="M234 868q66 88 100 150h37q-49 -75 -115 -150h-22zM248 610q-47 0 -74.5 28.5t-27.5 81.5t27.5 81.5t74.5 28.5t74.5 -28.5t27.5 -81.5t-27.5 -81.5t-74.5 -28.5zM248 628q38 0 59.5 24t21.5 68q0 43 -21.5 67.5t-59.5 24.5t-59.5 -24.5t-21.5 -67.5q0 -44 21.5 -68
t59.5 -24zM227 11q65 0 119 37.5t55 95.5v116h-178q-66 -1 -101.5 -32.5t-35.5 -91.5q0 -56 39.5 -90.5t101.5 -34.5zM223 -11q-69 0 -115 40t-46 106q0 71 41 109t119 38h179v80q0 72 -38.5 109.5t-106.5 37.5q-67 0 -107.5 -33t-51.5 -94h-25q11 70 59.5 110t124.5 40
q78 0 124.5 -44t46.5 -125v-279q0 -52 19 -84h-24q-20 29 -20 76v17q-17 -45 -68 -74.5t-111 -29.5z" />
    <glyph glyph-name="a.t_o" horiz-adv-x="507" 
d="M214 11q50 0 97 24.5t81 64.5v169h-178q-59 0 -96.5 -33.5t-37.5 -93.5q0 -62 38 -96.5t96 -34.5zM393 77q-35 -40 -84 -64t-99 -24q-66 0 -110.5 40t-44.5 109q0 71 44 112t114 41h179v72q0 69 -40 107.5t-110 38.5q-86 0 -141 -46v27q54 42 142 42q80 0 127 -43
t47 -122v-283q0 -51 20 -84h-24q-20 27 -20 77z" />
    <glyph glyph-name="agrave.t_o" horiz-adv-x="507" 
d="M260 607q-58 63 -115 150h34q43 -76 101 -150h-20zM214 11q50 0 97 24.5t81 64.5v169h-178q-59 0 -96.5 -33.5t-37.5 -93.5q0 -62 38 -96.5t96 -34.5zM393 77q-35 -40 -84 -64t-99 -24q-66 0 -110.5 40t-44.5 109q0 71 44 112t114 41h179v72q0 69 -40 107.5t-110 38.5
q-86 0 -141 -46v27q54 42 142 42q80 0 127 -43t47 -122v-283q0 -51 20 -84h-24q-20 27 -20 77z" />
    <glyph glyph-name="aacute.t_o" horiz-adv-x="507" 
d="M202 607q57 73 101 150h36q-46 -72 -114 -150h-23zM214 11q50 0 97 24.5t81 64.5v169h-178q-59 0 -96.5 -33.5t-37.5 -93.5q0 -62 38 -96.5t96 -34.5zM393 77q-35 -40 -84 -64t-99 -24q-66 0 -110.5 40t-44.5 109q0 71 44 112t114 41h179v72q0 69 -40 107.5t-110 38.5
q-86 0 -141 -46v27q54 42 142 42q80 0 127 -43t47 -122v-283q0 -51 20 -84h-24q-20 27 -20 77z" />
    <glyph glyph-name="acircumflex.t_o" horiz-adv-x="507" 
d="M105 618l-13 14q83 63 149 129h20q74 -71 151 -129l-13 -14q-74 52 -148 120q-70 -67 -146 -120zM214 11q50 0 97 24.5t81 64.5v169h-178q-59 0 -96.5 -33.5t-37.5 -93.5q0 -62 38 -96.5t96 -34.5zM393 77q-35 -40 -84 -64t-99 -24q-66 0 -110.5 40t-44.5 109
q0 71 44 112t114 41h179v72q0 69 -40 107.5t-110 38.5q-86 0 -141 -46v27q54 42 142 42q80 0 127 -43t47 -122v-283q0 -51 20 -84h-24q-20 27 -20 77z" />
    <glyph glyph-name="atilde.t_o" horiz-adv-x="507" 
d="M323 622q-46 0 -80 66q-33 63 -68 63q-29 0 -45 -30t-16 -80v-12h-23v13q0 58 23 94t63 36q46 0 80 -66q33 -63 68 -63q28 0 43.5 29.5t15.5 80.5v12h23v-13q0 -59 -22 -94.5t-62 -35.5zM214 11q50 0 97 24.5t81 64.5v169h-178q-59 0 -96.5 -33.5t-37.5 -93.5
q0 -62 38 -96.5t96 -34.5zM393 77q-35 -40 -84 -64t-99 -24q-66 0 -110.5 40t-44.5 109q0 71 44 112t114 41h179v72q0 69 -40 107.5t-110 38.5q-86 0 -141 -46v27q54 42 142 42q80 0 127 -43t47 -122v-283q0 -51 20 -84h-24q-20 27 -20 77z" />
    <glyph glyph-name="adieresis.t_o" horiz-adv-x="507" 
d="M309 649q-22 0 -22 23t22 23q24 0 24 -23t-24 -23zM187 649q-23 0 -23 23t23 23t23 -23q0 -10 -6.5 -16.5t-16.5 -6.5zM214 11q50 0 97 24.5t81 64.5v169h-178q-59 0 -96.5 -33.5t-37.5 -93.5q0 -62 38 -96.5t96 -34.5zM393 77q-35 -40 -84 -64t-99 -24q-66 0 -110.5 40
t-44.5 109q0 71 44 112t114 41h179v72q0 69 -40 107.5t-110 38.5q-86 0 -141 -46v27q54 42 142 42q80 0 127 -43t47 -122v-283q0 -51 20 -84h-24q-20 27 -20 77z" />
    <glyph glyph-name="aring.t_o" horiz-adv-x="507" 
d="M243 610q-47 0 -74.5 28.5t-27.5 81.5t27.5 81.5t74.5 28.5t74.5 -28.5t27.5 -81.5t-27.5 -81.5t-74.5 -28.5zM243 628q38 0 59.5 24t21.5 68q0 43 -21.5 67.5t-59.5 24.5t-59.5 -24.5t-21.5 -67.5q0 -44 21.5 -68t59.5 -24zM214 11q50 0 97 24.5t81 64.5v169h-178
q-59 0 -96.5 -33.5t-37.5 -93.5q0 -62 38 -96.5t96 -34.5zM393 77q-35 -40 -84 -64t-99 -24q-66 0 -110.5 40t-44.5 109q0 71 44 112t114 41h179v72q0 69 -40 107.5t-110 38.5q-86 0 -141 -46v27q54 42 142 42q80 0 127 -43t47 -122v-283q0 -51 20 -84h-24q-20 27 -20 77z
" />
    <glyph glyph-name="amacron.t_o" horiz-adv-x="507" 
d="M127 669v21h272v-21h-272zM214 11q50 0 97 24.5t81 64.5v169h-178q-59 0 -96.5 -33.5t-37.5 -93.5q0 -62 38 -96.5t96 -34.5zM393 77q-35 -40 -84 -64t-99 -24q-66 0 -110.5 40t-44.5 109q0 71 44 112t114 41h179v72q0 69 -40 107.5t-110 38.5q-86 0 -141 -46v27
q54 42 142 42q80 0 127 -43t47 -122v-283q0 -51 20 -84h-24q-20 27 -20 77z" />
    <glyph glyph-name="abreve.t_o" horiz-adv-x="507" 
d="M263 623q-68 0 -107 34t-40 103h22q1 -118 125 -118t125 118h23q-1 -69 -40.5 -103t-107.5 -34zM214 11q50 0 97 24.5t81 64.5v169h-178q-59 0 -96.5 -33.5t-37.5 -93.5q0 -62 38 -96.5t96 -34.5zM393 77q-35 -40 -84 -64t-99 -24q-66 0 -110.5 40t-44.5 109q0 71 44 112
t114 41h179v72q0 69 -40 107.5t-110 38.5q-86 0 -141 -46v27q54 42 142 42q80 0 127 -43t47 -122v-283q0 -51 20 -84h-24q-20 27 -20 77z" />
    <glyph glyph-name="aogonek.t_o" horiz-adv-x="507" 
d="M214 11q50 0 97 24.5t81 64.5v169h-178q-59 0 -96.5 -33.5t-37.5 -93.5q0 -62 38 -96.5t96 -34.5zM497 -174q-30 -8 -61 -8q-44 0 -73 22.5t-29 58.5q0 33 21 63t53 47q-15 30 -15 68q-35 -40 -84 -64t-99 -24q-66 0 -110.5 40t-44.5 109q0 71 44 112t114 41h179v72
q0 69 -40 107.5t-110 38.5q-86 0 -141 -46v27q54 42 142 42q80 0 127 -43t47 -122v-283q0 -51 20 -84h-19q-63 -39 -63 -96q0 -30 23.5 -48t60.5 -18q33 0 56 9z" />
    <glyph glyph-name="aringacute.t_o" horiz-adv-x="507" 
d="M234 868q66 88 100 150h37q-49 -75 -115 -150h-22zM248 610q-47 0 -74.5 28.5t-27.5 81.5t27.5 81.5t74.5 28.5t74.5 -28.5t27.5 -81.5t-27.5 -81.5t-74.5 -28.5zM248 628q38 0 59.5 24t21.5 68q0 43 -21.5 67.5t-59.5 24.5t-59.5 -24.5t-21.5 -67.5q0 -44 21.5 -68
t59.5 -24zM214 11q50 0 97 24.5t81 64.5v169h-178q-59 0 -96.5 -33.5t-37.5 -93.5q0 -62 38 -96.5t96 -34.5zM393 77q-35 -40 -84 -64t-99 -24q-66 0 -110.5 40t-44.5 109q0 71 44 112t114 41h179v72q0 69 -40 107.5t-110 38.5q-86 0 -141 -46v27q54 42 142 42q80 0 127 -43
t47 -122v-283q0 -51 20 -84h-24q-20 27 -20 77z" />
    <glyph glyph-name="b.copy_1" horiz-adv-x="554" 
d="M261 -9q-90 0 -162 48v677h25v-301q73 115 185 115q79 0 128 -66t49 -190q0 -148 -61 -215.5t-164 -67.5zM263 14q197 0 197 260q0 115 -43 173.5t-114 58.5q-106 0 -179 -120v-334q61 -38 139 -38z" />
    <glyph glyph-name="q.copy_1" horiz-adv-x="554" 
d="M293 532q86 0 162 -47v-659h-25v282q-72 -116 -185 -116q-79 0 -128 66t-49 190q0 148 61 216t164 68zM291 508q-198 0 -198 -260q0 -114 44 -173t114 -59q108 0 179 120v335q-61 37 -139 37z" />
    <glyph glyph-name="r.copy_1" horiz-adv-x="435" 
d="M124 -1h-25v522h25v-114q73 125 162 125q53 0 82 -35t29 -97v-34h-24v31q0 52 -24 81t-69 29q-83 0 -156 -126v-382z" />
    <glyph glyph-name="racute.copy_1" horiz-adv-x="435" 
d="M185 607q57 73 101 150h36q-48 -75 -115 -150h-22zM124 -1h-25v522h25v-114q73 125 162 125q53 0 82 -35t29 -97v-34h-24v31q0 52 -24 81t-69 29q-83 0 -156 -126v-382z" />
    <glyph glyph-name="rcommaaccent.copy_1" horiz-adv-x="435" 
d="M124 -1h-25v522h25v-114q73 125 162 125q53 0 82 -35t29 -97v-34h-24v31q0 52 -24 81t-69 29q-83 0 -156 -126v-382zM51 -211q30 67 45 132h35q-19 -65 -60 -132h-20z" />
    <glyph glyph-name="rcaron.copy_1" horiz-adv-x="435" 
d="M217 614q-59 59 -150 129l12 14q80 -58 149 -120q66 63 146 120l12 -14q-88 -68 -148 -129h-21zM124 -1h-25v522h25v-114q73 125 162 125q53 0 82 -35t29 -97v-34h-24v31q0 52 -24 81t-69 29q-83 0 -156 -126v-382z" />
    <glyph glyph-name="G.s" horiz-adv-x="647" 
d="M558 0l-1 162q-44 -171 -228 -171q-123 0 -193 90.5t-70 274.5q0 174 71.5 261.5t195.5 87.5q85 0 144.5 -38t82.5 -105l-23 -7q-23 61 -75.5 94t-128.5 33q-114 0 -178 -81t-64 -245q0 -175 62.5 -258.5t175.5 -83.5q227 0 227 272v35h-236v24h259v-345h-21z" />
    <glyph glyph-name="Gcircumflex.s" horiz-adv-x="647" 
d="M182 792l-12 14q79 60 148 129h20q74 -71 151 -129l-12 -14q-74 51 -149 120q-65 -63 -146 -120zM558 0l-1 162q-44 -171 -228 -171q-123 0 -193 90.5t-70 274.5q0 174 71.5 261.5t195.5 87.5q85 0 144.5 -38t82.5 -105l-23 -7q-23 61 -75.5 94t-128.5 33
q-114 0 -178 -81t-64 -245q0 -175 62.5 -258.5t175.5 -83.5q227 0 227 272v35h-236v24h259v-345h-21z" />
    <glyph glyph-name="Gbreve.s" horiz-adv-x="647" 
d="M329 797q-68 0 -107 33.5t-40 103.5h22q1 -118 125 -118t125 118h23q-1 -70 -40.5 -103.5t-107.5 -33.5zM558 0l-1 162q-44 -171 -228 -171q-123 0 -193 90.5t-70 274.5q0 174 71.5 261.5t195.5 87.5q85 0 144.5 -38t82.5 -105l-23 -7q-23 61 -75.5 94t-128.5 33
q-114 0 -178 -81t-64 -245q0 -175 62.5 -258.5t175.5 -83.5q227 0 227 272v35h-236v24h259v-345h-21z" />
    <glyph glyph-name="Gdotaccent.s" horiz-adv-x="647" 
d="M322 823q-23 0 -23 23t23 23q24 0 24 -23t-24 -23zM558 0l-1 162q-44 -171 -228 -171q-123 0 -193 90.5t-70 274.5q0 174 71.5 261.5t195.5 87.5q85 0 144.5 -38t82.5 -105l-23 -7q-23 61 -75.5 94t-128.5 33q-114 0 -178 -81t-64 -245q0 -175 62.5 -258.5t175.5 -83.5
q227 0 227 272v35h-236v24h259v-345h-21z" />
    <glyph glyph-name="Gcommaaccent.s" horiz-adv-x="647" 
d="M558 0l-1 162q-44 -171 -228 -171q-123 0 -193 90.5t-70 274.5q0 174 71.5 261.5t195.5 87.5q85 0 144.5 -38t82.5 -105l-23 -7q-23 61 -75.5 94t-128.5 33q-114 0 -178 -81t-64 -245q0 -175 62.5 -258.5t175.5 -83.5q227 0 227 272v35h-236v24h259v-345h-21zM284 -211
q31 68 44 132h36q-17 -60 -60 -132h-20z" />
    <glyph glyph-name="g.ssg" horiz-adv-x="552" 
d="M288 508q-197 0 -197 -250q0 -109 46 -165t119 -56q98 0 172 118v312q-62 41 -140 41zM428 -5v134q-77 -117 -178 -117q-82 0 -133 63.5t-51 182.5q0 143 59.5 208.5t159.5 65.5q76 0 144 -41v31h24v-527q0 -85 -56.5 -133t-137.5 -48q-111 0 -160 69l11 20
q46 -66 149 -66q71 0 120 40.5t49 117.5z" />
    <glyph glyph-name="gcircumflex.ssg" horiz-adv-x="552" 
d="M139 618l-12 14q85 64 148 129h21q70 -69 150 -129l-12 -14q-76 53 -148 120q-68 -64 -147 -120zM288 508q-197 0 -197 -250q0 -109 46 -165t119 -56q98 0 172 118v312q-62 41 -140 41zM428 -5v134q-77 -117 -178 -117q-82 0 -133 63.5t-51 182.5q0 143 59.5 208.5
t159.5 65.5q76 0 144 -41v31h24v-527q0 -85 -56.5 -133t-137.5 -48q-111 0 -160 69l11 20q46 -66 149 -66q71 0 120 40.5t49 117.5z" />
    <glyph glyph-name="gbreve.ssg" horiz-adv-x="552" 
d="M287 623q-68 0 -107.5 34t-40.5 103h23q1 -118 125 -118t125 118h22q-1 -69 -40 -103t-107 -34zM288 508q-197 0 -197 -250q0 -109 46 -165t119 -56q98 0 172 118v312q-62 41 -140 41zM428 -5v134q-77 -117 -178 -117q-82 0 -133 63.5t-51 182.5q0 143 59.5 208.5
t159.5 65.5q76 0 144 -41v31h24v-527q0 -85 -56.5 -133t-137.5 -48q-111 0 -160 69l11 20q46 -66 149 -66q71 0 120 40.5t49 117.5z" />
    <glyph glyph-name="gdotaccent.ssg" horiz-adv-x="552" 
d="M287 649q-24 0 -24 23t24 23q23 0 23 -23t-23 -23zM288 508q-197 0 -197 -250q0 -109 46 -165t119 -56q98 0 172 118v312q-62 41 -140 41zM428 -5v134q-77 -117 -178 -117q-82 0 -133 63.5t-51 182.5q0 143 59.5 208.5t159.5 65.5q76 0 144 -41v31h24v-527
q0 -85 -56.5 -133t-137.5 -48q-111 0 -160 69l11 20q46 -66 149 -66q71 0 120 40.5t49 117.5z" />
    <glyph glyph-name="gcommaaccent.ssg" horiz-adv-x="552" 
d="M280 613q19 61 60 131h21q-31 -64 -45 -131h-36zM288 508q-197 0 -197 -250q0 -109 46 -165t119 -56q98 0 172 118v312q-62 41 -140 41zM428 -5v134q-77 -117 -178 -117q-82 0 -133 63.5t-51 182.5q0 143 59.5 208.5t159.5 65.5q76 0 144 -41v31h24v-527
q0 -85 -56.5 -133t-137.5 -48q-111 0 -160 69l11 20q46 -66 149 -66q71 0 120 40.5t49 117.5z" />
    <glyph glyph-name="IJ.i_c" horiz-adv-x="808" 
d="M109 0v696h25v-696h-25zM505 -9q-89 0 -145 59t-62 162h25q6 -94 54 -146t128 -52q83 0 130 58.5t47 148.5v475h25v-475q0 -101 -54 -165.5t-148 -64.5z" />
    <glyph glyph-name="IJ.i_o" horiz-adv-x="743" 
d="M109 0v696h25v-696h-25zM450 -9q-94 0 -154 47v27q65 -51 154 -51q87 0 135.5 56t48.5 147v479h26v-479q0 -102 -56 -164t-154 -62z" />
    <glyph glyph-name="C.c" horiz-adv-x="626" 
d="M324 -9q-118 0 -188 91t-70 272q0 174 70.5 262.5t188.5 88.5q102 0 163.5 -58.5t81.5 -168.5h-26q-37 204 -219 204q-108 0 -171 -82t-63 -246q0 -172 62.5 -256t170.5 -84q94 0 150 51t71 144h25q-15 -102 -78.5 -160t-167.5 -58z" />
    <glyph glyph-name="Ccedilla.c" horiz-adv-x="626" 
d="M335 -182q-68 0 -101 52l15 12q29 -46 86 -46q35 0 58 14.5t23 42.5q0 54 -93 63v35q-118 0 -187.5 91t-69.5 272q0 174 70.5 262.5t188.5 88.5q102 0 163.5 -58.5t81.5 -168.5h-26q-37 204 -219 204q-108 0 -171 -82t-63 -246q0 -172 62.5 -256t170.5 -84q94 0 150 51
t71 144h25q-15 -98 -73 -155.5t-155 -62.5v-23q45 -5 70.5 -24t25.5 -51q0 -36 -29.5 -55.5t-73.5 -19.5z" />
    <glyph glyph-name="Cacute.c" horiz-adv-x="626" 
d="M271 780q58 76 101 151h37q-47 -71 -115 -151h-23zM324 -9q-118 0 -188 91t-70 272q0 174 70.5 262.5t188.5 88.5q102 0 163.5 -58.5t81.5 -168.5h-26q-37 204 -219 204q-108 0 -171 -82t-63 -246q0 -172 62.5 -256t170.5 -84q94 0 150 51t71 144h25q-15 -102 -78.5 -160
t-167.5 -58z" />
    <glyph glyph-name="Ccircumflex.c" horiz-adv-x="626" 
d="M185 792l-12 14q79 60 148 129h20q74 -71 151 -129l-12 -14q-74 51 -149 120q-65 -63 -146 -120zM324 -9q-118 0 -188 91t-70 272q0 174 70.5 262.5t188.5 88.5q102 0 163.5 -58.5t81.5 -168.5h-26q-37 204 -219 204q-108 0 -171 -82t-63 -246q0 -172 62.5 -256
t170.5 -84q94 0 150 51t71 144h25q-15 -102 -78.5 -160t-167.5 -58z" />
    <glyph glyph-name="Cdotaccent.c" horiz-adv-x="626" 
d="M332 823q-23 0 -23 23t23 23q24 0 24 -23t-24 -23zM324 -9q-118 0 -188 91t-70 272q0 174 70.5 262.5t188.5 88.5q102 0 163.5 -58.5t81.5 -168.5h-26q-37 204 -219 204q-108 0 -171 -82t-63 -246q0 -172 62.5 -256t170.5 -84q94 0 150 51t71 144h25q-15 -102 -78.5 -160
t-167.5 -58z" />
    <glyph glyph-name="Ccaron.c" horiz-adv-x="626" 
d="M323 788q-72 69 -150 129l12 14q91 -68 148 -120q62 58 147 120l12 -14q-87 -67 -149 -129h-20zM324 -9q-118 0 -188 91t-70 272q0 174 70.5 262.5t188.5 88.5q102 0 163.5 -58.5t81.5 -168.5h-26q-37 204 -219 204q-108 0 -171 -82t-63 -246q0 -172 62.5 -256t170.5 -84
q94 0 150 51t71 144h25q-15 -102 -78.5 -160t-167.5 -58z" />
    <glyph glyph-name="G.c" horiz-adv-x="647" 
d="M558 0l-1 162q-44 -171 -228 -171q-123 0 -193 90.5t-70 274.5q0 174 70 261.5t191 87.5q184 0 223 -164h-26q-34 141 -197 141q-112 0 -174 -81t-62 -245q0 -175 62.5 -258.5t175.5 -83.5q227 0 227 272v42h-236v24h259v-352h-21z" />
    <glyph glyph-name="Gcircumflex.c" horiz-adv-x="647" 
d="M182 792l-12 14q79 60 148 129h20q74 -71 151 -129l-12 -14q-74 51 -149 120q-65 -63 -146 -120zM558 0l-1 162q-44 -171 -228 -171q-123 0 -193 90.5t-70 274.5q0 174 70 261.5t191 87.5q184 0 223 -164h-26q-34 141 -197 141q-112 0 -174 -81t-62 -245
q0 -175 62.5 -258.5t175.5 -83.5q227 0 227 272v42h-236v24h259v-352h-21z" />
    <glyph glyph-name="Gbreve.c" horiz-adv-x="647" 
d="M329 797q-68 0 -107 33.5t-40 103.5h22q1 -118 125 -118t125 118h23q-1 -70 -40.5 -103.5t-107.5 -33.5zM558 0l-1 162q-44 -171 -228 -171q-123 0 -193 90.5t-70 274.5q0 174 70 261.5t191 87.5q184 0 223 -164h-26q-34 141 -197 141q-112 0 -174 -81t-62 -245
q0 -175 62.5 -258.5t175.5 -83.5q227 0 227 272v42h-236v24h259v-352h-21z" />
    <glyph glyph-name="Gdotaccent.c" horiz-adv-x="647" 
d="M322 823q-23 0 -23 23t23 23q24 0 24 -23t-24 -23zM558 0l-1 162q-44 -171 -228 -171q-123 0 -193 90.5t-70 274.5q0 174 70 261.5t191 87.5q184 0 223 -164h-26q-34 141 -197 141q-112 0 -174 -81t-62 -245q0 -175 62.5 -258.5t175.5 -83.5q227 0 227 272v42h-236v24
h259v-352h-21z" />
    <glyph glyph-name="Gcommaaccent.c" horiz-adv-x="647" 
d="M558 0l-1 162q-44 -171 -228 -171q-123 0 -193 90.5t-70 274.5q0 174 70 261.5t191 87.5q184 0 223 -164h-26q-34 141 -197 141q-112 0 -174 -81t-62 -245q0 -175 62.5 -258.5t175.5 -83.5q227 0 227 272v42h-236v24h259v-352h-21zM284 -211q31 68 44 132h36
q-17 -60 -60 -132h-20z" />
    <glyph glyph-name="J.c" horiz-adv-x="532" 
d="M236 -9q-89 0 -145 59t-63 162h26q6 -94 54 -146t128 -52q83 0 130 58.5t47 148.5v475h25v-475q0 -101 -54 -165.5t-148 -64.5z" />
    <glyph glyph-name="Jcircumflex.c" horiz-adv-x="532" 
d="M251 792l-12 14q79 60 148 129h21q70 -69 150 -129l-12 -14q-74 51 -149 120q-65 -63 -146 -120zM236 -9q-89 0 -145 59t-63 162h26q6 -94 54 -146t128 -52q83 0 130 58.5t47 148.5v475h25v-475q0 -101 -54 -165.5t-148 -64.5z" />
    <glyph glyph-name="Q.c" horiz-adv-x="650" 
d="M517 -68l-71 86q-50 -27 -120 -27q-121 0 -190.5 88.5t-69.5 276.5q0 177 70.5 263t190.5 86q119 0 188.5 -85.5t69.5 -263.5q0 -242 -117 -324l69 -83zM326 14q61 0 104 23l-92 110l19 17l95 -114q108 75 108 306q0 167 -62 246.5t-171 79.5q-110 0 -173 -79.5
t-63 -246.5q0 -342 235 -342z" />
    <glyph glyph-name="S.c" horiz-adv-x="608" 
d="M314 17q85 0 138.5 45.5t53.5 118.5q0 71 -48.5 108t-151.5 53q-107 16 -159 57.5t-52 120.5q0 80 54 130t146 50q89 0 145.5 -47.5t68.5 -139.5h-25q-12 81 -61.5 122.5t-128.5 41.5q-80 0 -127 -42.5t-47 -112.5q0 -71 46 -106t143 -49q114 -16 167.5 -60t53.5 -124
q0 -83 -60.5 -135.5t-155.5 -52.5q-103 -1 -167.5 50t-73.5 147h26q9 -85 65.5 -130t149.5 -45z" />
    <glyph glyph-name="Sacute.c" horiz-adv-x="608" 
d="M249 780q58 76 101 151h36q-46 -72 -115 -151h-22zM314 17q85 0 138.5 45.5t53.5 118.5q0 71 -48.5 108t-151.5 53q-107 16 -159 57.5t-52 120.5q0 80 54 130t146 50q89 0 145.5 -47.5t68.5 -139.5h-25q-12 81 -61.5 122.5t-128.5 41.5q-80 0 -127 -42.5t-47 -112.5
q0 -71 46 -106t143 -49q114 -16 167.5 -60t53.5 -124q0 -83 -60.5 -135.5t-155.5 -52.5q-103 -1 -167.5 50t-73.5 147h26q9 -85 65.5 -130t149.5 -45z" />
    <glyph glyph-name="Scircumflex.c" horiz-adv-x="608" 
d="M152 792l-12 14q83 63 149 129h20q72 -69 150 -129l-12 -14q-70 48 -148 120q-67 -64 -147 -120zM314 17q85 0 138.5 45.5t53.5 118.5q0 71 -48.5 108t-151.5 53q-107 16 -159 57.5t-52 120.5q0 80 54 130t146 50q89 0 145.5 -47.5t68.5 -139.5h-25q-12 81 -61.5 122.5
t-128.5 41.5q-80 0 -127 -42.5t-47 -112.5q0 -71 46 -106t143 -49q114 -16 167.5 -60t53.5 -124q0 -83 -60.5 -135.5t-155.5 -52.5q-103 -1 -167.5 50t-73.5 147h26q9 -85 65.5 -130t149.5 -45z" />
    <glyph glyph-name="Scedilla.c" horiz-adv-x="608" 
d="M303 -182q-67 0 -102 52l15 12q31 -46 87 -46q35 0 57.5 14.5t22.5 42.5q0 54 -92 63v39q-93 5 -151 56t-67 141h26q9 -85 65.5 -130t149.5 -45q85 0 138.5 45.5t53.5 118.5q0 71 -48.5 108t-151.5 53q-107 16 -159 57.5t-52 120.5q0 80 54 130t146 50q89 0 145.5 -47.5
t68.5 -139.5h-25q-12 81 -61.5 122.5t-128.5 41.5q-80 0 -127 -42.5t-47 -112.5q0 -71 46 -106t143 -49q114 -16 167.5 -60t53.5 -124q0 -83 -60.5 -135.5t-155.5 -52.5h-4v-27q95 -10 95 -75q0 -36 -29.5 -55.5t-72.5 -19.5z" />
    <glyph glyph-name="Scaron.c" horiz-adv-x="608" 
d="M280 788q-65 64 -150 129l12 14q90 -67 149 -120q59 57 146 120l12 -14q-82 -63 -148 -129h-21zM314 17q85 0 138.5 45.5t53.5 118.5q0 71 -48.5 108t-151.5 53q-107 16 -159 57.5t-52 120.5q0 80 54 130t146 50q89 0 145.5 -47.5t68.5 -139.5h-25q-12 81 -61.5 122.5
t-128.5 41.5q-80 0 -127 -42.5t-47 -112.5q0 -71 46 -106t143 -49q114 -16 167.5 -60t53.5 -124q0 -83 -60.5 -135.5t-155.5 -52.5q-103 -1 -167.5 50t-73.5 147h26q9 -85 65.5 -130t149.5 -45z" />
    <glyph glyph-name="Scommaaccent.c" horiz-adv-x="608" 
d="M314 17q85 0 138.5 45.5t53.5 118.5q0 71 -48.5 108t-151.5 53q-107 16 -159 57.5t-52 120.5q0 80 54 130t146 50q89 0 145.5 -47.5t68.5 -139.5h-25q-12 81 -61.5 122.5t-128.5 41.5q-80 0 -127 -42.5t-47 -112.5q0 -71 46 -106t143 -49q114 -16 167.5 -60t53.5 -124
q0 -83 -60.5 -135.5t-155.5 -52.5q-103 -1 -167.5 50t-73.5 147h26q9 -85 65.5 -130t149.5 -45zM237 -211q30 67 45 132h35q-17 -60 -60 -132h-20z" />
    <glyph glyph-name="IJ.c" horiz-adv-x="950" 
d="M43 0v22h139v652h-139v22h304v-22h-140v-652h140v-22h-304zM647 -9q-89 0 -145 59t-62 162h25q7 -94 55 -146t127 -52q83 0 130 58.5t47 148.5v475h26v-475q0 -100 -54.5 -165t-148.5 -65z" />
    <glyph glyph-name="a.c" horiz-adv-x="536" 
d="M226 11q66 0 120 37.5t55 95.5v116h-178q-66 -1 -101.5 -32.5t-35.5 -91.5q0 -56 39.5 -90.5t100.5 -34.5zM223 -11q-69 0 -115 40.5t-46 105.5q0 70 41.5 108.5t118.5 38.5h179v83q0 70 -39 107t-107 37q-67 0 -107 -33t-51 -94h-25q11 70 59 110t124 40q78 0 124.5 -43
t46.5 -123v-279q0 -42 22 -60.5t61 -6.5l1 -22q-44 -13 -72.5 9t-29.5 69v23q-19 -48 -71 -79t-114 -31z" />
    <glyph glyph-name="agrave.c" horiz-adv-x="536" 
d="M260 607q-58 63 -115 150h34q43 -76 101 -150h-20zM226 11q66 0 120 37.5t55 95.5v116h-178q-66 -1 -101.5 -32.5t-35.5 -91.5q0 -56 39.5 -90.5t100.5 -34.5zM223 -11q-69 0 -115 40.5t-46 105.5q0 70 41.5 108.5t118.5 38.5h179v83q0 70 -39 107t-107 37
q-67 0 -107 -33t-51 -94h-25q11 70 59 110t124 40q78 0 124.5 -43t46.5 -123v-279q0 -42 22 -60.5t61 -6.5l1 -22q-44 -13 -72.5 9t-29.5 69v23q-19 -48 -71 -79t-114 -31z" />
    <glyph glyph-name="aacute.c" horiz-adv-x="536" 
d="M202 607q57 73 101 150h36q-46 -72 -114 -150h-23zM226 11q66 0 120 37.5t55 95.5v116h-178q-66 -1 -101.5 -32.5t-35.5 -91.5q0 -56 39.5 -90.5t100.5 -34.5zM223 -11q-69 0 -115 40.5t-46 105.5q0 70 41.5 108.5t118.5 38.5h179v83q0 70 -39 107t-107 37
q-67 0 -107 -33t-51 -94h-25q11 70 59 110t124 40q78 0 124.5 -43t46.5 -123v-279q0 -42 22 -60.5t61 -6.5l1 -22q-44 -13 -72.5 9t-29.5 69v23q-19 -48 -71 -79t-114 -31z" />
    <glyph glyph-name="acircumflex.c" horiz-adv-x="536" 
d="M105 618l-13 14q83 63 149 129h20q74 -71 151 -129l-13 -14q-74 52 -148 120q-70 -67 -146 -120zM226 11q66 0 120 37.5t55 95.5v116h-178q-66 -1 -101.5 -32.5t-35.5 -91.5q0 -56 39.5 -90.5t100.5 -34.5zM223 -11q-69 0 -115 40.5t-46 105.5q0 70 41.5 108.5
t118.5 38.5h179v83q0 70 -39 107t-107 37q-67 0 -107 -33t-51 -94h-25q11 70 59 110t124 40q78 0 124.5 -43t46.5 -123v-279q0 -42 22 -60.5t61 -6.5l1 -22q-44 -13 -72.5 9t-29.5 69v23q-19 -48 -71 -79t-114 -31z" />
    <glyph glyph-name="atilde.c" horiz-adv-x="536" 
d="M323 622q-46 0 -80 66q-33 63 -68 63q-29 0 -45 -30t-16 -80v-12h-23v13q0 58 23 94t63 36q46 0 80 -66q33 -63 68 -63q28 0 43.5 29.5t15.5 80.5v12h23v-13q0 -59 -22 -94.5t-62 -35.5zM226 11q66 0 120 37.5t55 95.5v116h-178q-66 -1 -101.5 -32.5t-35.5 -91.5
q0 -56 39.5 -90.5t100.5 -34.5zM223 -11q-69 0 -115 40.5t-46 105.5q0 70 41.5 108.5t118.5 38.5h179v83q0 70 -39 107t-107 37q-67 0 -107 -33t-51 -94h-25q11 70 59 110t124 40q78 0 124.5 -43t46.5 -123v-279q0 -42 22 -60.5t61 -6.5l1 -22q-44 -13 -72.5 9t-29.5 69v23
q-19 -48 -71 -79t-114 -31z" />
    <glyph glyph-name="adieresis.c" horiz-adv-x="536" 
d="M312 649q-22 0 -22 23t22 23q24 0 24 -23t-24 -23zM190 649q-23 0 -23 23t23 23t23 -23q0 -10 -6.5 -16.5t-16.5 -6.5zM226 11q66 0 120 37.5t55 95.5v116h-178q-66 -1 -101.5 -32.5t-35.5 -91.5q0 -56 39.5 -90.5t100.5 -34.5zM223 -11q-69 0 -115 40.5t-46 105.5
q0 70 41.5 108.5t118.5 38.5h179v83q0 70 -39 107t-107 37q-67 0 -107 -33t-51 -94h-25q11 70 59 110t124 40q78 0 124.5 -43t46.5 -123v-279q0 -42 22 -60.5t61 -6.5l1 -22q-44 -13 -72.5 9t-29.5 69v23q-19 -48 -71 -79t-114 -31z" />
    <glyph glyph-name="aring.c" horiz-adv-x="536" 
d="M243 610q-47 0 -74.5 28.5t-27.5 81.5t27.5 81.5t74.5 28.5t74.5 -28.5t27.5 -81.5t-27.5 -81.5t-74.5 -28.5zM243 628q38 0 59.5 24t21.5 68q0 43 -21.5 67.5t-59.5 24.5t-59.5 -24.5t-21.5 -67.5q0 -44 21.5 -68t59.5 -24zM226 11q66 0 120 37.5t55 95.5v116h-178
q-66 -1 -101.5 -32.5t-35.5 -91.5q0 -56 39.5 -90.5t100.5 -34.5zM223 -11q-69 0 -115 40.5t-46 105.5q0 70 41.5 108.5t118.5 38.5h179v83q0 70 -39 107t-107 37q-67 0 -107 -33t-51 -94h-25q11 70 59 110t124 40q78 0 124.5 -43t46.5 -123v-279q0 -42 22 -60.5t61 -6.5
l1 -22q-44 -13 -72.5 9t-29.5 69v23q-19 -48 -71 -79t-114 -31z" />
    <glyph glyph-name="amacron.c" horiz-adv-x="536" 
d="M127 669v21h272v-21h-272zM226 11q66 0 120 37.5t55 95.5v116h-178q-66 -1 -101.5 -32.5t-35.5 -91.5q0 -56 39.5 -90.5t100.5 -34.5zM223 -11q-69 0 -115 40.5t-46 105.5q0 70 41.5 108.5t118.5 38.5h179v83q0 70 -39 107t-107 37q-67 0 -107 -33t-51 -94h-25
q11 70 59 110t124 40q78 0 124.5 -43t46.5 -123v-279q0 -42 22 -60.5t61 -6.5l1 -22q-44 -13 -72.5 9t-29.5 69v23q-19 -48 -71 -79t-114 -31z" />
    <glyph glyph-name="abreve.c" horiz-adv-x="536" 
d="M263 623q-68 0 -107 34t-40 103h22q1 -118 125 -118t125 118h23q-1 -69 -40.5 -103t-107.5 -34zM226 11q66 0 120 37.5t55 95.5v116h-178q-66 -1 -101.5 -32.5t-35.5 -91.5q0 -56 39.5 -90.5t100.5 -34.5zM223 -11q-69 0 -115 40.5t-46 105.5q0 70 41.5 108.5t118.5 38.5
h179v83q0 70 -39 107t-107 37q-67 0 -107 -33t-51 -94h-25q11 70 59 110t124 40q78 0 124.5 -43t46.5 -123v-279q0 -42 22 -60.5t61 -6.5l1 -22q-44 -13 -72.5 9t-29.5 69v23q-19 -48 -71 -79t-114 -31z" />
    <glyph glyph-name="aogonek.c" horiz-adv-x="536" 
d="M226 11q66 0 120 37.5t55 95.5v116h-178q-66 -1 -101.5 -32.5t-35.5 -91.5q0 -56 39.5 -90.5t100.5 -34.5zM526 -174q-30 -8 -61 -8q-43 0 -72 22.5t-29 58.5q0 33 20.5 62t51.5 47q-28 23 -28 68v23q-19 -48 -71 -79t-114 -31q-69 0 -115 40.5t-46 105.5
q0 70 41.5 108.5t118.5 38.5h179v83q0 70 -39 107t-107 37q-67 0 -107 -33t-51 -94h-25q11 70 59 110t124 40q78 0 124.5 -43t46.5 -123v-279q0 -42 22 -60.5t61 -6.5l1 -22q-36 -10 -62 2q-64 -38 -64 -96q0 -30 23.5 -48t60.5 -18q33 0 56 9z" />
    <glyph glyph-name="aringacute.c" horiz-adv-x="536" 
d="M234 868q66 88 100 150h37q-49 -75 -115 -150h-22zM248 610q-47 0 -74.5 28.5t-27.5 81.5t27.5 81.5t74.5 28.5t74.5 -28.5t27.5 -81.5t-27.5 -81.5t-74.5 -28.5zM248 628q38 0 59.5 24t21.5 68q0 43 -21.5 67.5t-59.5 24.5t-59.5 -24.5t-21.5 -67.5q0 -44 21.5 -68
t59.5 -24zM226 11q66 0 120 37.5t55 95.5v116h-178q-66 -1 -101.5 -32.5t-35.5 -91.5q0 -56 39.5 -90.5t100.5 -34.5zM223 -11q-69 0 -115 40.5t-46 105.5q0 70 41.5 108.5t118.5 38.5h179v83q0 70 -39 107t-107 37q-67 0 -107 -33t-51 -94h-25q11 70 59 110t124 40
q78 0 124.5 -43t46.5 -123v-279q0 -42 22 -60.5t61 -6.5l1 -22q-44 -13 -72.5 9t-29.5 69v23q-19 -48 -71 -79t-114 -31z" />
    <glyph glyph-name="b.c" horiz-adv-x="567" 
d="M124 0h-25v715h25v-347q15 80 62.5 122t114.5 42q87 0 142.5 -68.5t55.5 -202.5t-55.5 -202t-142.5 -68q-67 0 -114.5 41.5t-62.5 121.5v-154zM298 508q-79 0 -127 -61.5t-48 -184.5t48 -185.5t127 -62.5t127.5 62.5t48.5 184.5q0 123 -48.5 185t-127.5 62z" />
    <glyph glyph-name="c.c" horiz-adv-x="519" 
d="M278 -9q-98 0 -154 68t-56 204q0 132 56.5 200.5t154.5 68.5q72 0 119.5 -39.5t63.5 -115.5h-26q-12 65 -53.5 98t-104.5 33q-87 0 -136 -61.5t-49 -183.5q0 -125 49 -187t136 -62q63 0 104.5 33t53.5 98h26q-16 -75 -63.5 -114.5t-120.5 -39.5z" />
    <glyph glyph-name="ccedilla.c" horiz-adv-x="519" 
d="M272 -182q-68 0 -101 52l15 12q29 -46 86 -46q35 0 58 14.5t23 42.5q0 54 -93 63v35q-90 6 -141 74t-51 198q0 132 56.5 200.5t154.5 68.5q72 0 119.5 -39.5t63.5 -115.5h-26q-12 65 -53.5 98t-104.5 33q-87 0 -136 -61.5t-49 -183.5q0 -125 49 -187t136 -62
q63 0 104.5 33t53.5 98h26q-16 -75 -63.5 -114.5t-119.5 -39.5v-23q45 -5 70.5 -24t25.5 -51q0 -36 -29.5 -55.5t-73.5 -19.5z" />
    <glyph glyph-name="cacute.c" horiz-adv-x="519" 
d="M229 607q63 82 100 150h37q-53 -81 -115 -150h-22zM278 -9q-98 0 -154 68t-56 204q0 132 56.5 200.5t154.5 68.5q72 0 119.5 -39.5t63.5 -115.5h-26q-12 65 -53.5 98t-104.5 33q-87 0 -136 -61.5t-49 -183.5q0 -125 49 -187t136 -62q63 0 104.5 33t53.5 98h26
q-16 -75 -63.5 -114.5t-120.5 -39.5z" />
    <glyph glyph-name="ccircumflex.c" horiz-adv-x="519" 
d="M120 618l-12 14q79 60 148 129h20q74 -71 151 -129l-12 -14q-74 51 -149 120q-65 -63 -146 -120zM278 -9q-98 0 -154 68t-56 204q0 132 56.5 200.5t154.5 68.5q72 0 119.5 -39.5t63.5 -115.5h-26q-12 65 -53.5 98t-104.5 33q-87 0 -136 -61.5t-49 -183.5q0 -125 49 -187
t136 -62q63 0 104.5 33t53.5 98h26q-16 -75 -63.5 -114.5t-120.5 -39.5z" />
    <glyph glyph-name="cdotaccent.c" horiz-adv-x="519" 
d="M257 649q-10 0 -16.5 6.5t-6.5 16.5q0 23 23 23t23 -23t-23 -23zM278 -9q-98 0 -154 68t-56 204q0 132 56.5 200.5t154.5 68.5q72 0 119.5 -39.5t63.5 -115.5h-26q-12 65 -53.5 98t-104.5 33q-87 0 -136 -61.5t-49 -183.5q0 -125 49 -187t136 -62q63 0 104.5 33t53.5 98
h26q-16 -75 -63.5 -114.5t-120.5 -39.5z" />
    <glyph glyph-name="ccaron.c" horiz-adv-x="519" 
d="M248 614q-58 57 -150 129l12 14q75 -54 148 -120q67 63 146 120l13 -14q-92 -71 -149 -129h-20zM278 -9q-98 0 -154 68t-56 204q0 132 56.5 200.5t154.5 68.5q72 0 119.5 -39.5t63.5 -115.5h-26q-12 65 -53.5 98t-104.5 33q-87 0 -136 -61.5t-49 -183.5q0 -125 49 -187
t136 -62q63 0 104.5 33t53.5 98h26q-16 -75 -63.5 -114.5t-120.5 -39.5z" />
    <glyph glyph-name="d.c" horiz-adv-x="567" 
d="M269 14q79 0 127 61.5t48 184.5t-48 185.5t-127 62.5t-127.5 -62.5t-48.5 -184.5q0 -123 48.5 -185t127.5 -62zM443 716h25v-716h-25v154q-15 -80 -62.5 -121.5t-114.5 -41.5q-86 0 -142 68t-56 202t56 202.5t142 68.5q67 0 114.5 -42t62.5 -122v348z" />
    <glyph glyph-name="dcaron.c" horiz-adv-x="567" 
d="M534 586q29 75 38 143h29q-13 -77 -48 -143h-19zM269 14q79 0 127 61.5t48 184.5t-48 185.5t-127 62.5t-127.5 -62.5t-48.5 -184.5q0 -123 48.5 -185t127.5 -62zM443 716h25v-716h-25v154q-15 -80 -62.5 -121.5t-114.5 -41.5q-86 0 -142 68t-56 202t56 202.5t142 68.5
q67 0 114.5 -42t62.5 -122v348z" />
    <glyph glyph-name="e.c" horiz-adv-x="523" 
d="M278 509q-83 0 -131 -55.5t-53 -165.5h352v12q0 101 -47 155t-121 54zM467 137q-5 -64 -58.5 -105t-131.5 -41q-101 0 -155 67.5t-54 204.5q0 133 56 201t155 68q84 0 138.5 -61.5t54.5 -172.5v-33h-378l-1 -2q0 -250 184 -250q68 0 113 34t52 90h25z" />
    <glyph glyph-name="egrave.c" horiz-adv-x="523" 
d="M287 607q-63 69 -115 150h33q50 -85 102 -150h-20zM278 509q-83 0 -131 -55.5t-53 -165.5h352v12q0 101 -47 155t-121 54zM467 137q-5 -64 -58.5 -105t-131.5 -41q-101 0 -155 67.5t-54 204.5q0 133 56 201t155 68q84 0 138.5 -61.5t54.5 -172.5v-33h-378l-1 -2
q0 -250 184 -250q68 0 113 34t52 90h25z" />
    <glyph glyph-name="eacute.c" horiz-adv-x="523" 
d="M214 607q62 79 101 150h37q-49 -74 -115 -150h-23zM278 509q-83 0 -131 -55.5t-53 -165.5h352v12q0 101 -47 155t-121 54zM467 137q-5 -64 -58.5 -105t-131.5 -41q-101 0 -155 67.5t-54 204.5q0 133 56 201t155 68q84 0 138.5 -61.5t54.5 -172.5v-33h-378l-1 -2
q0 -250 184 -250q68 0 113 34t52 90h25z" />
    <glyph glyph-name="ecircumflex.c" horiz-adv-x="523" 
d="M114 618l-12 14q84 65 148 129h20q74 -71 151 -129l-12 -14q-74 51 -149 120q-70 -67 -146 -120zM278 509q-83 0 -131 -55.5t-53 -165.5h352v12q0 101 -47 155t-121 54zM467 137q-5 -64 -58.5 -105t-131.5 -41q-101 0 -155 67.5t-54 204.5q0 133 56 201t155 68
q84 0 138.5 -61.5t54.5 -172.5v-33h-378l-1 -2q0 -250 184 -250q68 0 113 34t52 90h25z" />
    <glyph glyph-name="edieresis.c" horiz-adv-x="523" 
d="M322 649q-22 0 -22 23t22 23q25 0 25 -23q0 -10 -7 -16.5t-18 -6.5zM200 649q-23 0 -23 23t23 23q24 0 24 -23q0 -10 -7 -16.5t-17 -6.5zM278 509q-83 0 -131 -55.5t-53 -165.5h352v12q0 101 -47 155t-121 54zM467 137q-5 -64 -58.5 -105t-131.5 -41q-101 0 -155 67.5
t-54 204.5q0 133 56 201t155 68q84 0 138.5 -61.5t54.5 -172.5v-33h-378l-1 -2q0 -250 184 -250q68 0 113 34t52 90h25z" />
    <glyph glyph-name="emacron.c" horiz-adv-x="523" 
d="M125 668v21h272v-21h-272zM278 509q-83 0 -131 -55.5t-53 -165.5h352v12q0 101 -47 155t-121 54zM467 137q-5 -64 -58.5 -105t-131.5 -41q-101 0 -155 67.5t-54 204.5q0 133 56 201t155 68q84 0 138.5 -61.5t54.5 -172.5v-33h-378l-1 -2q0 -250 184 -250q68 0 113 34
t52 90h25z" />
    <glyph glyph-name="ebreve.c" horiz-adv-x="523" 
d="M261 623q-68 0 -107 34t-40 103h22q1 -118 125 -118t125 118h23q-1 -69 -40.5 -103t-107.5 -34zM278 509q-83 0 -131 -55.5t-53 -165.5h352v12q0 101 -47 155t-121 54zM467 137q-5 -64 -58.5 -105t-131.5 -41q-101 0 -155 67.5t-54 204.5q0 133 56 201t155 68
q84 0 138.5 -61.5t54.5 -172.5v-33h-378l-1 -2q0 -250 184 -250q68 0 113 34t52 90h25z" />
    <glyph glyph-name="edotaccent.c" horiz-adv-x="523" 
d="M261 649q-10 0 -16.5 6.5t-6.5 16.5q0 23 23 23q24 0 24 -23t-24 -23zM278 509q-83 0 -131 -55.5t-53 -165.5h352v12q0 101 -47 155t-121 54zM467 137q-5 -64 -58.5 -105t-131.5 -41q-101 0 -155 67.5t-54 204.5q0 133 56 201t155 68q84 0 138.5 -61.5t54.5 -172.5v-33
h-378l-1 -2q0 -250 184 -250q68 0 113 34t52 90h25z" />
    <glyph glyph-name="eogonek.c" horiz-adv-x="523" 
d="M278 509q-83 0 -131 -55.5t-53 -165.5h352v12q0 101 -47 155t-121 54zM427 -174q-30 -8 -61 -8q-44 0 -73 22.5t-29 58.5q0 53 51 95q-18 -3 -38 -3q-101 0 -155 67.5t-54 204.5q0 133 56 201t155 68q84 0 138.5 -61.5t54.5 -172.5v-33h-378l-1 -2q0 -250 184 -250
q68 0 113 34t52 90h25q-4 -47 -35 -82.5t-80 -52.5q-67 -38 -67 -98q0 -30 23.5 -48t60.5 -18q33 0 56 9z" />
    <glyph glyph-name="ecaron.c" horiz-adv-x="523" 
d="M250 614q-58 57 -150 129l12 14q75 -54 148 -120q69 65 147 120l12 -14q-92 -71 -149 -129h-20zM278 509q-83 0 -131 -55.5t-53 -165.5h352v12q0 101 -47 155t-121 54zM467 137q-5 -64 -58.5 -105t-131.5 -41q-101 0 -155 67.5t-54 204.5q0 133 56 201t155 68
q84 0 138.5 -61.5t54.5 -172.5v-33h-378l-1 -2q0 -250 184 -250q68 0 113 34t52 90h25z" />
    <glyph glyph-name="f.c" horiz-adv-x="352" 
d="M147 0v499h-115v23h115v47q0 74 35 110.5t93 36.5h58v-23h-56q-46 0 -75 -31.5t-29 -92.5v-47h160v-23h-160v-499h-26z" />
    <glyph glyph-name="g.c" horiz-adv-x="565" 
d="M267 38q79 0 127 58.5t48 175.5t-48 176.5t-127 59.5t-127.5 -59.5t-48.5 -176.5q0 -116 48.5 -175t127.5 -59zM275 -186q-75 0 -126.5 37t-57.5 115h25q6 -67 50 -98t109 -31q69 0 117.5 40.5t48.5 114.5v179q-14 -76 -61.5 -116.5t-115.5 -40.5q-86 0 -142 65.5
t-56 192.5q0 128 56 194t142 66q68 0 115.5 -40.5t61.5 -116.5v147h25v-530q0 -83 -56 -130.5t-135 -47.5z" />
    <glyph glyph-name="gcircumflex.c" horiz-adv-x="565" 
d="M139 618l-12 14q85 64 148 129h21q70 -69 150 -129l-12 -14q-76 53 -148 120q-68 -64 -147 -120zM267 38q79 0 127 58.5t48 175.5t-48 176.5t-127 59.5t-127.5 -59.5t-48.5 -176.5q0 -116 48.5 -175t127.5 -59zM275 -186q-75 0 -126.5 37t-57.5 115h25q6 -67 50 -98
t109 -31q69 0 117.5 40.5t48.5 114.5v179q-14 -76 -61.5 -116.5t-115.5 -40.5q-86 0 -142 65.5t-56 192.5q0 128 56 194t142 66q68 0 115.5 -40.5t61.5 -116.5v147h25v-530q0 -83 -56 -130.5t-135 -47.5z" />
    <glyph glyph-name="gbreve.c" horiz-adv-x="565" 
d="M287 623q-68 0 -107.5 34t-40.5 103h23q1 -118 125 -118t125 118h22q-1 -69 -40 -103t-107 -34zM267 38q79 0 127 58.5t48 175.5t-48 176.5t-127 59.5t-127.5 -59.5t-48.5 -176.5q0 -116 48.5 -175t127.5 -59zM275 -186q-75 0 -126.5 37t-57.5 115h25q6 -67 50 -98
t109 -31q69 0 117.5 40.5t48.5 114.5v179q-14 -76 -61.5 -116.5t-115.5 -40.5q-86 0 -142 65.5t-56 192.5q0 128 56 194t142 66q68 0 115.5 -40.5t61.5 -116.5v147h25v-530q0 -83 -56 -130.5t-135 -47.5z" />
    <glyph glyph-name="gdotaccent.c" horiz-adv-x="565" 
d="M287 649q-24 0 -24 23t24 23q23 0 23 -23t-23 -23zM267 38q79 0 127 58.5t48 175.5t-48 176.5t-127 59.5t-127.5 -59.5t-48.5 -176.5q0 -116 48.5 -175t127.5 -59zM275 -186q-75 0 -126.5 37t-57.5 115h25q6 -67 50 -98t109 -31q69 0 117.5 40.5t48.5 114.5v179
q-14 -76 -61.5 -116.5t-115.5 -40.5q-86 0 -142 65.5t-56 192.5q0 128 56 194t142 66q68 0 115.5 -40.5t61.5 -116.5v147h25v-530q0 -83 -56 -130.5t-135 -47.5z" />
    <glyph glyph-name="gcommaaccent.c" horiz-adv-x="565" 
d="M280 613q19 61 60 131h21q-31 -64 -45 -131h-36zM267 38q79 0 127 58.5t48 175.5t-48 176.5t-127 59.5t-127.5 -59.5t-48.5 -176.5q0 -116 48.5 -175t127.5 -59zM275 -186q-75 0 -126.5 37t-57.5 115h25q6 -67 50 -98t109 -31q69 0 117.5 40.5t48.5 114.5v179
q-14 -76 -61.5 -116.5t-115.5 -40.5q-86 0 -142 65.5t-56 192.5q0 128 56 194t142 66q68 0 115.5 -40.5t61.5 -116.5v147h25v-530q0 -83 -56 -130.5t-135 -47.5z" />
    <glyph glyph-name="h.c" 
d="M124 0h-25v716h25v-312q71 128 184 128q72 0 114 -49.5t42 -136.5v-346h-25v343q0 78 -35.5 121.5t-100.5 43.5q-118 0 -179 -151v-357z" />
    <glyph glyph-name="hcircumflex.c" 
d="M-30 792l-13 14q83 63 149 129h20q72 -69 150 -129l-12 -14q-70 48 -148 120q-66 -63 -146 -120zM124 0h-25v716h25v-312q71 128 184 128q72 0 114 -49.5t42 -136.5v-346h-25v343q0 78 -35.5 121.5t-100.5 43.5q-118 0 -179 -151v-357z" />
    <glyph glyph-name="j.c" horiz-adv-x="262" 
d="M135 649q-22 0 -22 23t22 23q25 0 25 -23q0 -10 -7 -16.5t-18 -6.5zM24 -174h-63v24h61q46 0 73.5 26.5t27.5 82.5v563h25v-563q0 -67 -33.5 -100t-90.5 -33z" />
    <glyph glyph-name="m.c" horiz-adv-x="851" 
d="M124 343v-343h-25v522h25v-105q14 51 57 84t102 33q55 0 96.5 -35.5t54.5 -94.5q16 60 60 95t107 35q68 0 114 -52.5t46 -135.5v-346h-25v343q0 74 -39.5 120.5t-99.5 46.5q-68 0 -111 -46.5t-43 -120.5v-343h-25v343q0 74 -40 120.5t-101 46.5q-66 0 -109.5 -46.5
t-43.5 -120.5z" />
    <glyph glyph-name="n.c" 
d="M124 0h-25v522h25v-105q14 52 60.5 84.5t109.5 32.5q73 0 121.5 -52.5t48.5 -135.5v-346h-25v343q0 74 -42 120.5t-108 46.5q-72 0 -118.5 -46.5t-46.5 -120.5v-343z" />
    <glyph glyph-name="ntilde.c" 
d="M367 622q-46 0 -80 66q-12 21 -19 31.5t-21 21t-29 10.5q-28 0 -44 -30t-16 -80v-12h-23v13q0 58 23 94t63 36q46 0 80 -66q33 -63 68 -63q28 0 43.5 29.5t15.5 80.5v12h22v-13q0 -59 -21.5 -94.5t-61.5 -35.5zM124 0h-25v522h25v-105q14 52 60.5 84.5t109.5 32.5
q73 0 121.5 -52.5t48.5 -135.5v-346h-25v343q0 74 -42 120.5t-108 46.5q-72 0 -118.5 -46.5t-46.5 -120.5v-343z" />
    <glyph glyph-name="nacute.c" 
d="M252 607q57 73 101 150h36q-48 -75 -115 -150h-22zM124 0h-25v522h25v-105q14 52 60.5 84.5t109.5 32.5q73 0 121.5 -52.5t48.5 -135.5v-346h-25v343q0 74 -42 120.5t-108 46.5q-72 0 -118.5 -46.5t-46.5 -120.5v-343z" />
    <glyph glyph-name="ncommaaccent.c" 
d="M124 0h-25v522h25v-105q14 52 60.5 84.5t109.5 32.5q73 0 121.5 -52.5t48.5 -135.5v-346h-25v343q0 74 -42 120.5t-108 46.5q-72 0 -118.5 -46.5t-46.5 -120.5v-343zM211 -211q31 66 45 132h36q-20 -64 -60 -132h-21z" />
    <glyph glyph-name="ncaron.c" 
d="M273 614q-59 59 -150 129l12 14q80 -58 149 -120q66 63 146 120l12 -14q-93 -71 -148 -129h-21zM124 0h-25v522h25v-105q14 52 60.5 84.5t109.5 32.5q73 0 121.5 -52.5t48.5 -135.5v-346h-25v343q0 74 -42 120.5t-108 46.5q-72 0 -118.5 -46.5t-46.5 -120.5v-343z" />
    <glyph glyph-name="p.c" horiz-adv-x="567" 
d="M298 508q-79 0 -127 -61.5t-48 -184.5t48 -185.5t127 -62.5t127.5 62.5t48.5 184.5q0 123 -48.5 185t-127.5 62zM124 -174h-25v696h25v-154q15 80 62.5 122t114.5 42q87 0 142.5 -68.5t55.5 -202.5t-55.5 -202t-142.5 -68q-67 0 -114.5 41.5t-62.5 121.5v-328z" />
    <glyph glyph-name="q.c" horiz-adv-x="567" 
d="M443 522h25v-695h-25v327q-15 -80 -62.5 -121.5t-114.5 -41.5q-86 0 -142 68t-56 202t56 202.5t142 68.5q67 0 114.5 -42t62.5 -122v154zM269 14q79 0 127 61.5t48 184.5t-48 185.5t-127 62.5t-127.5 -62.5t-48.5 -184.5q0 -123 48.5 -185t127.5 -62z" />
    <glyph glyph-name="r.c" horiz-adv-x="340" 
d="M124 0h-25v522h25v-121q15 56 63.5 88.5t113.5 32.5h21v-23h-21q-73 0 -125 -45.5t-52 -119.5v-334z" />
    <glyph glyph-name="racute.c" horiz-adv-x="340" 
d="M185 607q57 73 101 150h36q-48 -75 -115 -150h-22zM124 0h-25v522h25v-121q15 56 63.5 88.5t113.5 32.5h21v-23h-21q-73 0 -125 -45.5t-52 -119.5v-334z" />
    <glyph glyph-name="rcommaaccent.c" horiz-adv-x="340" 
d="M124 0h-25v522h25v-121q15 56 63.5 88.5t113.5 32.5h21v-23h-21q-73 0 -125 -45.5t-52 -119.5v-334zM51 -211q30 67 45 132h35q-19 -65 -60 -132h-20z" />
    <glyph glyph-name="rcaron.c" horiz-adv-x="340" 
d="M217 614q-59 59 -150 129l12 14q80 -58 149 -120q66 63 146 120l12 -14q-88 -68 -148 -129h-21zM124 0h-25v522h25v-121q15 56 63.5 88.5t113.5 32.5h21v-23h-21q-73 0 -125 -45.5t-52 -119.5v-334z" />
    <glyph glyph-name="s.c" horiz-adv-x="499" 
d="M263 -9q-81 0 -137 35.5t-67 111.5h24q11 -65 60 -94.5t120 -29.5q66 0 110.5 30.5t44.5 86.5q0 57 -39 82.5t-127 38.5q-97 12 -141.5 44t-44.5 97t49 102t123 37q71 0 122.5 -37.5t60.5 -111.5h-26q-8 64 -51.5 94.5t-105.5 30.5q-63 0 -105.5 -29.5t-42.5 -84.5
t38.5 -80.5t129.5 -38.5q96 -14 140.5 -45t44.5 -98q0 -66 -52 -103.5t-128 -37.5z" />
    <glyph glyph-name="sacute.c" horiz-adv-x="499" 
d="M193 607q57 73 101 150h36q-48 -75 -115 -150h-22zM263 -9q-81 0 -137 35.5t-67 111.5h24q11 -65 60 -94.5t120 -29.5q66 0 110.5 30.5t44.5 86.5q0 57 -39 82.5t-127 38.5q-97 12 -141.5 44t-44.5 97t49 102t123 37q71 0 122.5 -37.5t60.5 -111.5h-26q-8 64 -51.5 94.5
t-105.5 30.5q-63 0 -105.5 -29.5t-42.5 -84.5t38.5 -80.5t129.5 -38.5q96 -14 140.5 -45t44.5 -98q0 -66 -52 -103.5t-128 -37.5z" />
    <glyph glyph-name="scircumflex.c" horiz-adv-x="499" 
d="M86 618l-12 14q83 63 149 129h20q78 -74 150 -129l-12 -14q-76 53 -148 120q-67 -64 -147 -120zM263 -9q-81 0 -137 35.5t-67 111.5h24q11 -65 60 -94.5t120 -29.5q66 0 110.5 30.5t44.5 86.5q0 57 -39 82.5t-127 38.5q-97 12 -141.5 44t-44.5 97t49 102t123 37
q71 0 122.5 -37.5t60.5 -111.5h-26q-8 64 -51.5 94.5t-105.5 30.5q-63 0 -105.5 -29.5t-42.5 -84.5t38.5 -80.5t129.5 -38.5q96 -14 140.5 -45t44.5 -98q0 -66 -52 -103.5t-128 -37.5z" />
    <glyph glyph-name="scedilla.c" horiz-adv-x="499" 
d="M257 -182q-67 0 -102 52l16 12q29 -46 86 -46q35 0 57.5 14.5t22.5 42.5q0 54 -92 63v35q-74 4 -125 40t-61 107h24q11 -65 60 -94.5t120 -29.5q66 0 110.5 30.5t44.5 86.5q0 57 -39 82.5t-127 38.5q-97 12 -141.5 44t-44.5 97t49 102t123 37q71 0 122.5 -37.5
t60.5 -111.5h-26q-8 64 -51.5 94.5t-105.5 30.5q-63 0 -105.5 -29.5t-42.5 -84.5t38.5 -80.5t129.5 -38.5q96 -14 140.5 -45t44.5 -98q0 -65 -52 -103t-127 -38v-23q45 -5 70.5 -24t25.5 -51q0 -36 -29.5 -55.5t-73.5 -19.5z" />
    <glyph glyph-name="scaron.c" horiz-adv-x="499" 
d="M225 614q-61 60 -151 129l12 14q80 -58 149 -120q66 63 146 120l12 -14q-88 -68 -148 -129h-20zM263 -9q-81 0 -137 35.5t-67 111.5h24q11 -65 60 -94.5t120 -29.5q66 0 110.5 30.5t44.5 86.5q0 57 -39 82.5t-127 38.5q-97 12 -141.5 44t-44.5 97t49 102t123 37
q71 0 122.5 -37.5t60.5 -111.5h-26q-8 64 -51.5 94.5t-105.5 30.5q-63 0 -105.5 -29.5t-42.5 -84.5t38.5 -80.5t129.5 -38.5q96 -14 140.5 -45t44.5 -98q0 -66 -52 -103.5t-128 -37.5z" />
    <glyph glyph-name="scommaaccent.c" horiz-adv-x="499" 
d="M263 -9q-81 0 -137 35.5t-67 111.5h24q11 -65 60 -94.5t120 -29.5q66 0 110.5 30.5t44.5 86.5q0 57 -39 82.5t-127 38.5q-97 12 -141.5 44t-44.5 97t49 102t123 37q71 0 122.5 -37.5t60.5 -111.5h-26q-8 64 -51.5 94.5t-105.5 30.5q-63 0 -105.5 -29.5t-42.5 -84.5
t38.5 -80.5t129.5 -38.5q96 -14 140.5 -45t44.5 -98q0 -66 -52 -103.5t-128 -37.5zM178 -211q30 67 45 132h35q-19 -65 -60 -132h-20z" />
    <glyph glyph-name="t.c" horiz-adv-x="364" 
d="M261 0q-127 0 -127 147v352h-110v23h110v144h26v-144h165v-23h-165v-352q0 -124 102 -124h69v-23h-70z" />
    <glyph glyph-name="tcedilla.c" horiz-adv-x="364" 
d="M245 -182q-67 0 -102 52l16 12q29 -46 86 -46q35 0 57.5 14.5t22.5 42.5q0 54 -92 63v45h9q-108 11 -108 146v352h-110v23h110v144h26v-144h165v-23h-165v-352q0 -124 102 -124h69v-23h-70h-9v-32q45 -5 70.5 -24t25.5 -51q0 -36 -29.5 -55.5t-73.5 -19.5z" />
    <glyph glyph-name="tcaron.c" horiz-adv-x="364" 
d="M276 636q30 74 39 142h28q-12 -75 -47 -142h-20zM261 0q-127 0 -127 147v352h-110v23h110v144h26v-144h165v-23h-165v-352q0 -124 102 -124h69v-23h-70z" />
    <glyph glyph-name="tcommaaccent.c" horiz-adv-x="364" 
d="M261 0q-127 0 -127 147v352h-110v23h110v144h26v-144h165v-23h-165v-352q0 -124 102 -124h69v-23h-70zM170 -211q31 68 44 132h36q-17 -60 -60 -132h-20z" />
    <glyph glyph-name="u.c" 
d="M431 522h25v-522h-25v106q-14 -51 -60.5 -84t-109.5 -33q-73 0 -122 52t-49 136v345h26v-343q0 -74 42 -120.5t108 -46.5q72 0 118.5 46.5t46.5 120.5v343z" />
    <glyph glyph-name="ugrave.c" 
d="M280 607q-63 71 -114 150h33q50 -85 102 -150h-21zM431 522h25v-522h-25v106q-14 -51 -60.5 -84t-109.5 -33q-73 0 -122 52t-49 136v345h26v-343q0 -74 42 -120.5t108 -46.5q72 0 118.5 46.5t46.5 120.5v343z" />
    <glyph glyph-name="uacute.c" 
d="M239 607q63 82 100 150h37q-53 -81 -115 -150h-22zM431 522h25v-522h-25v106q-14 -51 -60.5 -84t-109.5 -33q-73 0 -122 52t-49 136v345h26v-343q0 -74 42 -120.5t108 -46.5q72 0 118.5 46.5t46.5 120.5v343z" />
    <glyph glyph-name="ucircumflex.c" 
d="M130 618l-12 14q85 64 148 129h21q71 -69 150 -129l-12 -14q-74 51 -149 120q-65 -63 -146 -120zM431 522h25v-522h-25v106q-14 -51 -60.5 -84t-109.5 -33q-73 0 -122 52t-49 136v345h26v-343q0 -74 42 -120.5t108 -46.5q72 0 118.5 46.5t46.5 120.5v343z" />
    <glyph glyph-name="udieresis.c" 
d="M340 649q-22 0 -22 23t22 23q25 0 25 -23t-25 -23zM218 649q-23 0 -23 23t23 23q24 0 24 -23t-24 -23zM431 522h25v-522h-25v106q-14 -51 -60.5 -84t-109.5 -33q-73 0 -122 52t-49 136v345h26v-343q0 -74 42 -120.5t108 -46.5q72 0 118.5 46.5t46.5 120.5v343z" />
    <glyph glyph-name="utilde.c" 
d="M352 622q-27 0 -45.5 17t-35.5 49q-11 20 -18.5 31.5t-21 21.5t-28.5 10q-28 0 -44.5 -30.5t-16.5 -79.5v-12h-22v13q0 58 22.5 94t62.5 36q28 0 46 -17t35 -49q33 -63 68 -63q28 0 43.5 29.5t15.5 80.5v12h22v-13q0 -59 -22 -94.5t-61 -35.5zM431 522h25v-522h-25v106
q-14 -51 -60.5 -84t-109.5 -33q-73 0 -122 52t-49 136v345h26v-343q0 -74 42 -120.5t108 -46.5q72 0 118.5 46.5t46.5 120.5v343z" />
    <glyph glyph-name="umacron.c" 
d="M141 668v21h273v-21h-273zM431 522h25v-522h-25v106q-14 -51 -60.5 -84t-109.5 -33q-73 0 -122 52t-49 136v345h26v-343q0 -74 42 -120.5t108 -46.5q72 0 118.5 46.5t46.5 120.5v343z" />
    <glyph glyph-name="ubreve.c" 
d="M277 623q-68 0 -107 34t-40 103h22q1 -118 125 -118t125 118h23q-1 -69 -40.5 -103t-107.5 -34zM431 522h25v-522h-25v106q-14 -51 -60.5 -84t-109.5 -33q-73 0 -122 52t-49 136v345h26v-343q0 -74 42 -120.5t108 -46.5q72 0 118.5 46.5t46.5 120.5v343z" />
    <glyph glyph-name="uring.c" 
d="M277 610q-47 0 -74 28.5t-27 81.5t27 81.5t74 28.5t74.5 -28.5t27.5 -81.5t-27.5 -81.5t-74.5 -28.5zM277 628q38 0 60 24t22 68q0 43 -22 67.5t-60 24.5q-37 0 -59 -24.5t-22 -67.5q0 -44 22 -68t59 -24zM431 522h25v-522h-25v106q-14 -51 -60.5 -84t-109.5 -33
q-73 0 -122 52t-49 136v345h26v-343q0 -74 42 -120.5t108 -46.5q72 0 118.5 46.5t46.5 120.5v343z" />
    <glyph glyph-name="uhungarumlaut.c" 
d="M180 607q49 84 77 150h30q-42 -81 -88 -150h-19zM299 607q46 78 78 150h28q-39 -78 -87 -150h-19zM431 522h25v-522h-25v106q-14 -51 -60.5 -84t-109.5 -33q-73 0 -122 52t-49 136v345h26v-343q0 -74 42 -120.5t108 -46.5q72 0 118.5 46.5t46.5 120.5v343z" />
    <glyph glyph-name="uogonek.c" 
d="M518 -174q-30 -8 -61 -8q-44 0 -72.5 22.5t-28.5 58.5q0 34 21.5 63.5t53.5 47.5v96q-14 -51 -60.5 -84t-109.5 -33q-73 0 -122 52t-49 136v345h26v-343q0 -74 42 -120.5t108 -46.5q72 0 118.5 46.5t46.5 120.5v343h25v-522h-17q-63 -39 -63 -96q0 -30 23.5 -48t60.5 -18
q33 0 56 9z" />
    <glyph glyph-name="y.c" horiz-adv-x="490" 
d="M98 -179h-22v24h23q44 0 69.5 24t43.5 76l21 56l-194 520l26 2l181 -492l181 492l26 -2l-221 -588q-22 -58 -53.5 -85t-80.5 -27z" />
    <glyph glyph-name="yacute.c" horiz-adv-x="490" 
d="M184 607q57 73 101 150h36q-48 -75 -115 -150h-22zM98 -179h-22v24h23q44 0 69.5 24t43.5 76l21 56l-194 520l26 2l181 -492l181 492l26 -2l-221 -588q-22 -58 -53.5 -85t-80.5 -27z" />
    <glyph glyph-name="ydieresis.c" horiz-adv-x="490" 
d="M306 649q-22 0 -22 23t22 23q24 0 24 -23t-24 -23zM184 649q-23 0 -23 23t23 23t23 -23q0 -10 -6.5 -16.5t-16.5 -6.5zM98 -179h-22v24h23q44 0 69.5 24t43.5 76l21 56l-194 520l26 2l181 -492l181 492l26 -2l-221 -588q-22 -58 -53.5 -85t-80.5 -27z" />
    <glyph glyph-name="ycircumflex.c" horiz-adv-x="490" 
d="M98 618l-13 14q83 63 149 129h20q72 -69 150 -129l-12 -14q-70 48 -148 120q-66 -63 -146 -120zM98 -179h-22v24h23q44 0 69.5 24t43.5 76l21 56l-194 520l26 2l181 -492l181 492l26 -2l-221 -588q-22 -58 -53.5 -85t-80.5 -27z" />
    <glyph glyph-name="ygrave.c" horiz-adv-x="490" 
d="M270 607q-62 69 -115 150h34q50 -85 102 -150h-21zM98 -179h-22v24h23q44 0 69.5 24t43.5 76l21 56l-194 520l26 2l181 -492l181 492l26 -2l-221 -588q-22 -58 -53.5 -85t-80.5 -27z" />
    <glyph glyph-name="napostrophe.c" 
d="M16 607q57 73 101 150h36q-46 -72 -114 -150h-23zM124 0h-25v522h25v-105q14 52 60.5 84.5t109.5 32.5q73 0 121.5 -52.5t48.5 -135.5v-346h-25v343q0 74 -42 120.5t-108 46.5q-72 0 -118.5 -46.5t-46.5 -120.5v-343z" />
    <glyph glyph-name="two.c" horiz-adv-x="626" 
d="M110 0v80q0 90 46.5 142t156.5 104q107 51 148 93.5t41 109.5q0 70 -47.5 111.5t-126.5 41.5q-173 0 -199 -168h-25q14 93 71 142t154 49q90 0 144 -47.5t54 -128.5q0 -74 -46 -122t-156 -101q-106 -52 -148 -98.5t-42 -127.5v-57h399v-23h-424z" />
    <glyph glyph-name="three.c" horiz-adv-x="626" 
d="M317 -9q-102 0 -165 47.5t-74 143.5h27q10 -85 65.5 -127t146.5 -42q89 0 143 46.5t54 134.5q0 166 -207 166h-94v23h99q103 0 144.5 35t41.5 106q0 79 -54 119t-133 40q-169 0 -190 -155h-26q12 87 67.5 132t148.5 45q90 0 151 -46t61 -135q0 -140 -157 -152
q90 -9 132 -57t42 -121q0 -97 -61.5 -150t-161.5 -53z" />
    <glyph glyph-name="five.c" horiz-adv-x="626" 
d="M318 -9q-183 0 -219 189h26q32 -166 194 -166q89 0 140.5 58.5t51.5 152.5q0 92 -52 146t-138 54q-121 0 -180 -79h-22v350h380v-22h-355v-299q62 73 179 73q95 0 154.5 -59.5t59.5 -163.5q0 -103 -59.5 -168.5t-159.5 -65.5z" />
    <glyph glyph-name="six.c" horiz-adv-x="626" 
d="M539 220q0 -106 -58.5 -168.5t-166.5 -62.5q-107 0 -166 68.5t-59 182.5v206q0 124 56.5 191.5t162.5 67.5q167 0 208 -156h-27q-19 66 -61.5 99.5t-120.5 33.5q-95 0 -143.5 -60.5t-48.5 -175.5v-134q20 59 73.5 91.5t131.5 32.5q100 0 159.5 -58t59.5 -158zM115 233
q0 -100 51.5 -160.5t147.5 -60.5t147 55.5t51 149.5q0 92 -52.5 144t-145.5 52t-146 -48t-53 -132z" />
    <glyph glyph-name="nine.c" horiz-adv-x="626" 
d="M511 461q0 100 -51.5 160.5t-147.5 60.5t-147 -55.5t-51 -149.5q0 -92 52.5 -144.5t145.5 -52.5t146 48.5t53 132.5zM87 475q0 105 58.5 167.5t166.5 62.5q107 0 166 -68.5t59 -182.5v-206q0 -124 -56.5 -191.5t-162.5 -67.5q-167 0 -208 156h27q19 -67 62 -100t120 -33
q95 0 143.5 61t48.5 175v134q-20 -59 -73.5 -91.5t-131.5 -32.5q-101 0 -160 58t-59 159z" />
    <glyph glyph-name="question.c" horiz-adv-x="548" 
d="M255 185h-19l-2 146q126 10 177 54.5t51 127.5q0 77 -50 123t-130 46q-173 0 -200 -161h-25q12 87 69.5 135.5t155.5 48.5q91 0 148.5 -52.5t57.5 -139.5q0 -90 -56 -139.5t-175 -58.5zM245 -4q-25 0 -25 27q0 28 25 28t25 -28q0 -27 -25 -27z" />
    <glyph glyph-name="C.o" horiz-adv-x="574" 
d="M363 -9q-135 0 -216 91t-81 272q0 174 81.5 262.5t216.5 88.5q99 0 162 -39v-27q-61 43 -163 43q-125 0 -198.5 -82.5t-73.5 -245.5q0 -172 73.5 -256t198.5 -84q102 0 163 45v-27q-64 -41 -163 -41z" />
    <glyph glyph-name="Ccedilla.o" horiz-adv-x="574" 
d="M335 -182q-68 0 -101 52l15 12q29 -46 86 -46q35 0 58 14.5t23 42.5q0 54 -93 63v37q-119 13 -188 103t-69 258q0 174 81.5 262.5t216.5 88.5q99 0 162 -39v-27q-61 43 -163 43q-125 0 -198.5 -82.5t-73.5 -245.5q0 -172 73.5 -256t198.5 -84q102 0 163 45v-27
q-64 -41 -163 -41h-21v-23q45 -5 70.5 -24t25.5 -51q0 -36 -29.5 -55.5t-73.5 -19.5z" />
    <glyph glyph-name="Cacute.o" horiz-adv-x="574" 
d="M271 780q58 76 101 151h37q-47 -71 -115 -151h-23zM363 -9q-135 0 -216 91t-81 272q0 174 81.5 262.5t216.5 88.5q99 0 162 -39v-27q-61 43 -163 43q-125 0 -198.5 -82.5t-73.5 -245.5q0 -172 73.5 -256t198.5 -84q102 0 163 45v-27q-64 -41 -163 -41z" />
    <glyph glyph-name="Ccircumflex.o" horiz-adv-x="574" 
d="M185 792l-12 14q79 60 148 129h20q74 -71 151 -129l-12 -14q-74 51 -149 120q-65 -63 -146 -120zM363 -9q-135 0 -216 91t-81 272q0 174 81.5 262.5t216.5 88.5q99 0 162 -39v-27q-61 43 -163 43q-125 0 -198.5 -82.5t-73.5 -245.5q0 -172 73.5 -256t198.5 -84
q102 0 163 45v-27q-64 -41 -163 -41z" />
    <glyph glyph-name="Cdotaccent.o" horiz-adv-x="574" 
d="M332 823q-23 0 -23 23t23 23q24 0 24 -23t-24 -23zM363 -9q-135 0 -216 91t-81 272q0 174 81.5 262.5t216.5 88.5q99 0 162 -39v-27q-61 43 -163 43q-125 0 -198.5 -82.5t-73.5 -245.5q0 -172 73.5 -256t198.5 -84q102 0 163 45v-27q-64 -41 -163 -41z" />
    <glyph glyph-name="Ccaron.o" horiz-adv-x="574" 
d="M323 788q-72 69 -150 129l12 14q91 -68 148 -120q62 58 147 120l12 -14q-87 -67 -149 -129h-20zM363 -9q-135 0 -216 91t-81 272q0 174 81.5 262.5t216.5 88.5q99 0 162 -39v-27q-61 43 -163 43q-125 0 -198.5 -82.5t-73.5 -245.5q0 -172 73.5 -256t198.5 -84
q102 0 163 45v-27q-64 -41 -163 -41z" />
    <glyph glyph-name="G.o" horiz-adv-x="640" 
d="M565 43q-89 -52 -210 -52q-136 0 -212.5 90t-76.5 275q0 174 76 261.5t207 87.5q113 0 185 -47v-27q-70 51 -185 51q-121 0 -189.5 -81t-68.5 -245q0 -175 69 -258.5t195 -83.5q104 0 185 43v271h-222v24h247v-309z" />
    <glyph glyph-name="Gcircumflex.o" horiz-adv-x="640" 
d="M182 792l-12 14q79 60 148 129h20q74 -71 151 -129l-12 -14q-74 51 -149 120q-65 -63 -146 -120zM565 43q-89 -52 -210 -52q-136 0 -212.5 90t-76.5 275q0 174 76 261.5t207 87.5q113 0 185 -47v-27q-70 51 -185 51q-121 0 -189.5 -81t-68.5 -245q0 -175 69 -258.5
t195 -83.5q104 0 185 43v271h-222v24h247v-309z" />
    <glyph glyph-name="Gbreve.o" horiz-adv-x="640" 
d="M329 797q-68 0 -107 33.5t-40 103.5h22q1 -118 125 -118t125 118h23q-1 -70 -40.5 -103.5t-107.5 -33.5zM565 43q-89 -52 -210 -52q-136 0 -212.5 90t-76.5 275q0 174 76 261.5t207 87.5q113 0 185 -47v-27q-70 51 -185 51q-121 0 -189.5 -81t-68.5 -245
q0 -175 69 -258.5t195 -83.5q104 0 185 43v271h-222v24h247v-309z" />
    <glyph glyph-name="Gdotaccent.o" horiz-adv-x="640" 
d="M329 823q-23 0 -23 23t23 23q24 0 24 -23t-24 -23zM565 43q-89 -52 -210 -52q-136 0 -212.5 90t-76.5 275q0 174 76 261.5t207 87.5q113 0 185 -47v-27q-70 51 -185 51q-121 0 -189.5 -81t-68.5 -245q0 -175 69 -258.5t195 -83.5q104 0 185 43v271h-222v24h247v-309z" />
    <glyph glyph-name="Gcommaaccent.o" horiz-adv-x="640" 
d="M565 43q-89 -52 -210 -52q-136 0 -212.5 90t-76.5 275q0 174 76 261.5t207 87.5q113 0 185 -47v-27q-70 51 -185 51q-121 0 -189.5 -81t-68.5 -245q0 -175 69 -258.5t195 -83.5q104 0 185 43v271h-222v24h247v-309zM284 -211q31 68 44 132h36q-17 -60 -60 -132h-20z" />
    <glyph glyph-name="J.o" horiz-adv-x="484" 
d="M181 -9q-93 0 -155 47v27q67 -51 155 -51q87 0 135.5 56t48.5 147v479h25v-479q0 -102 -55.5 -164t-153.5 -62z" />
    <glyph glyph-name="Jcircumflex.o" horiz-adv-x="484" 
d="M220 792l-13 14q83 63 149 129h20q72 -69 150 -129l-12 -14q-70 48 -148 120q-66 -63 -146 -120zM181 -9q-93 0 -155 47v27q67 -51 155 -51q87 0 135.5 56t48.5 147v479h25v-479q0 -102 -55.5 -164t-153.5 -62z" />
    <glyph glyph-name="Q.o" horiz-adv-x="650" 
d="M562 -168q-121 -24 -186 17t-67 142q-113 6 -178 94.5t-65 270.5q0 177 70.5 263t190.5 86q119 0 188.5 -85.5t69.5 -263.5q0 -185 -67 -274t-184 -91q9 -180 228 -136v-23zM326 14q234 0 234 342q0 167 -62 246.5t-171 79.5q-110 0 -173 -79.5t-63 -246.5
q0 -342 235 -342z" />
    <glyph glyph-name="S.o" horiz-adv-x="552" 
d="M259 -8q-131 0 -199 44v28q74 -49 199 -49q97 0 156 42t59 113q0 70 -48 108t-159 64q-105 25 -154 69t-49 118q0 79 56.5 127t151.5 48q114 0 182 -50v-27q-73 54 -182 54q-83 0 -133 -40t-50 -109q0 -67 45 -105.5t145 -61.5q115 -27 167 -71t52 -123q0 -80 -66 -129.5
t-173 -49.5z" />
    <glyph glyph-name="Sacute.o" horiz-adv-x="552" 
d="M249 780q58 76 101 151h36q-46 -72 -115 -151h-22zM259 -8q-131 0 -199 44v28q74 -49 199 -49q97 0 156 42t59 113q0 70 -48 108t-159 64q-105 25 -154 69t-49 118q0 79 56.5 127t151.5 48q114 0 182 -50v-27q-73 54 -182 54q-83 0 -133 -40t-50 -109q0 -67 45 -105.5
t145 -61.5q115 -27 167 -71t52 -123q0 -80 -66 -129.5t-173 -49.5z" />
    <glyph glyph-name="Scircumflex.o" horiz-adv-x="552" 
d="M152 792l-12 14q83 63 149 129h20q72 -69 150 -129l-12 -14q-70 48 -148 120q-67 -64 -147 -120zM259 -8q-131 0 -199 44v28q74 -49 199 -49q97 0 156 42t59 113q0 70 -48 108t-159 64q-105 25 -154 69t-49 118q0 79 56.5 127t151.5 48q114 0 182 -50v-27q-73 54 -182 54
q-83 0 -133 -40t-50 -109q0 -67 45 -105.5t145 -61.5q115 -27 167 -71t52 -123q0 -80 -66 -129.5t-173 -49.5z" />
    <glyph glyph-name="Scedilla.o" horiz-adv-x="552" 
d="M303 -182q-67 0 -102 52l15 12q31 -46 87 -46q35 0 57.5 14.5t22.5 42.5q0 54 -92 63v37q-11 -1 -32 -1q-131 0 -199 44v28q74 -49 199 -49q97 0 156 42t59 113q0 70 -48 108t-159 64q-105 25 -154 69t-49 118q0 79 56.5 127t151.5 48q114 0 182 -50v-27q-73 54 -182 54
q-83 0 -133 -40t-50 -109q0 -67 45 -105.5t145 -61.5q115 -27 167 -71t52 -123q0 -70 -51 -117.5t-137 -58.5v-27q95 -10 95 -75q0 -36 -29.5 -55.5t-72.5 -19.5z" />
    <glyph glyph-name="Scaron.o" horiz-adv-x="552" 
d="M280 788q-65 64 -150 129l12 14q90 -67 149 -120q59 57 146 120l12 -14q-82 -63 -148 -129h-21zM259 -8q-131 0 -199 44v28q74 -49 199 -49q97 0 156 42t59 113q0 70 -48 108t-159 64q-105 25 -154 69t-49 118q0 79 56.5 127t151.5 48q114 0 182 -50v-27q-73 54 -182 54
q-83 0 -133 -40t-50 -109q0 -67 45 -105.5t145 -61.5q115 -27 167 -71t52 -123q0 -80 -66 -129.5t-173 -49.5z" />
    <glyph glyph-name="Scommaaccent.o" horiz-adv-x="552" 
d="M259 -8q-131 0 -199 44v28q74 -49 199 -49q97 0 156 42t59 113q0 70 -48 108t-159 64q-105 25 -154 69t-49 118q0 79 56.5 127t151.5 48q114 0 182 -50v-27q-73 54 -182 54q-83 0 -133 -40t-50 -109q0 -67 45 -105.5t145 -61.5q115 -27 167 -71t52 -123q0 -80 -66 -129.5
t-173 -49.5zM237 -211q30 67 45 132h35q-17 -60 -60 -132h-20z" />
    <glyph glyph-name="IJ.o" horiz-adv-x="936" 
d="M43 0v22h139v652h-139v22h304v-22h-140v-652h140v-22h-304zM643 -9q-94 0 -154 47v27q65 -51 154 -51q87 0 135.5 56t48.5 147v479h26v-479q0 -102 -56 -164t-154 -62z" />
    <glyph glyph-name="a.o" horiz-adv-x="526" 
d="M217 11q49 0 95.5 24.5t79.5 64.5v169h-171q-62 0 -101.5 -34.5t-39.5 -96.5q0 -60 38.5 -93.5t98.5 -33.5zM213 -11q-67 0 -112.5 39t-45.5 106q0 73 46 115t119 42h172v74q0 69 -40 106.5t-110 37.5q-86 0 -141 -46v27q54 42 142 42q80 0 127 -42.5t47 -121.5v-281
q0 -42 22 -60.5t61 -6.5l1 -22q-44 -13 -73 9t-30 69v4q-36 -41 -85 -66t-100 -25z" />
    <glyph glyph-name="agrave.o" horiz-adv-x="526" 
d="M260 607q-58 63 -115 150h34q43 -76 101 -150h-20zM217 11q49 0 95.5 24.5t79.5 64.5v169h-171q-62 0 -101.5 -34.5t-39.5 -96.5q0 -60 38.5 -93.5t98.5 -33.5zM213 -11q-67 0 -112.5 39t-45.5 106q0 73 46 115t119 42h172v74q0 69 -40 106.5t-110 37.5q-86 0 -141 -46
v27q54 42 142 42q80 0 127 -42.5t47 -121.5v-281q0 -42 22 -60.5t61 -6.5l1 -22q-44 -13 -73 9t-30 69v4q-36 -41 -85 -66t-100 -25z" />
    <glyph glyph-name="aacute.o" horiz-adv-x="526" 
d="M202 607q57 73 101 150h36q-46 -72 -114 -150h-23zM217 11q49 0 95.5 24.5t79.5 64.5v169h-171q-62 0 -101.5 -34.5t-39.5 -96.5q0 -60 38.5 -93.5t98.5 -33.5zM213 -11q-67 0 -112.5 39t-45.5 106q0 73 46 115t119 42h172v74q0 69 -40 106.5t-110 37.5q-86 0 -141 -46
v27q54 42 142 42q80 0 127 -42.5t47 -121.5v-281q0 -42 22 -60.5t61 -6.5l1 -22q-44 -13 -73 9t-30 69v4q-36 -41 -85 -66t-100 -25z" />
    <glyph glyph-name="acircumflex.o" horiz-adv-x="526" 
d="M105 618l-13 14q83 63 149 129h20q74 -71 151 -129l-13 -14q-74 52 -148 120q-70 -67 -146 -120zM217 11q49 0 95.5 24.5t79.5 64.5v169h-171q-62 0 -101.5 -34.5t-39.5 -96.5q0 -60 38.5 -93.5t98.5 -33.5zM213 -11q-67 0 -112.5 39t-45.5 106q0 73 46 115t119 42h172
v74q0 69 -40 106.5t-110 37.5q-86 0 -141 -46v27q54 42 142 42q80 0 127 -42.5t47 -121.5v-281q0 -42 22 -60.5t61 -6.5l1 -22q-44 -13 -73 9t-30 69v4q-36 -41 -85 -66t-100 -25z" />
    <glyph glyph-name="atilde.o" horiz-adv-x="526" 
d="M323 622q-46 0 -80 66q-33 63 -68 63q-29 0 -45 -30t-16 -80v-12h-23v13q0 58 23 94t63 36q46 0 80 -66q33 -63 68 -63q28 0 43.5 29.5t15.5 80.5v12h23v-13q0 -59 -22 -94.5t-62 -35.5zM217 11q49 0 95.5 24.5t79.5 64.5v169h-171q-62 0 -101.5 -34.5t-39.5 -96.5
q0 -60 38.5 -93.5t98.5 -33.5zM213 -11q-67 0 -112.5 39t-45.5 106q0 73 46 115t119 42h172v74q0 69 -40 106.5t-110 37.5q-86 0 -141 -46v27q54 42 142 42q80 0 127 -42.5t47 -121.5v-281q0 -42 22 -60.5t61 -6.5l1 -22q-44 -13 -73 9t-30 69v4q-36 -41 -85 -66t-100 -25z
" />
    <glyph glyph-name="adieresis.o" horiz-adv-x="526" 
d="M311 649q-22 0 -22 23t22 23q24 0 24 -23t-24 -23zM189 649q-23 0 -23 23t23 23t23 -23q0 -10 -6.5 -16.5t-16.5 -6.5zM217 11q49 0 95.5 24.5t79.5 64.5v169h-171q-62 0 -101.5 -34.5t-39.5 -96.5q0 -60 38.5 -93.5t98.5 -33.5zM213 -11q-67 0 -112.5 39t-45.5 106
q0 73 46 115t119 42h172v74q0 69 -40 106.5t-110 37.5q-86 0 -141 -46v27q54 42 142 42q80 0 127 -42.5t47 -121.5v-281q0 -42 22 -60.5t61 -6.5l1 -22q-44 -13 -73 9t-30 69v4q-36 -41 -85 -66t-100 -25z" />
    <glyph glyph-name="aring.o" horiz-adv-x="526" 
d="M243 610q-47 0 -74.5 28.5t-27.5 81.5t27.5 81.5t74.5 28.5t74.5 -28.5t27.5 -81.5t-27.5 -81.5t-74.5 -28.5zM243 628q38 0 59.5 24t21.5 68q0 43 -21.5 67.5t-59.5 24.5t-59.5 -24.5t-21.5 -67.5q0 -44 21.5 -68t59.5 -24zM217 11q49 0 95.5 24.5t79.5 64.5v169h-171
q-62 0 -101.5 -34.5t-39.5 -96.5q0 -60 38.5 -93.5t98.5 -33.5zM213 -11q-67 0 -112.5 39t-45.5 106q0 73 46 115t119 42h172v74q0 69 -40 106.5t-110 37.5q-86 0 -141 -46v27q54 42 142 42q80 0 127 -42.5t47 -121.5v-281q0 -42 22 -60.5t61 -6.5l1 -22q-44 -13 -73 9
t-30 69v4q-36 -41 -85 -66t-100 -25z" />
    <glyph glyph-name="amacron.o" horiz-adv-x="526" 
d="M127 669v21h272v-21h-272zM217 11q49 0 95.5 24.5t79.5 64.5v169h-171q-62 0 -101.5 -34.5t-39.5 -96.5q0 -60 38.5 -93.5t98.5 -33.5zM213 -11q-67 0 -112.5 39t-45.5 106q0 73 46 115t119 42h172v74q0 69 -40 106.5t-110 37.5q-86 0 -141 -46v27q54 42 142 42
q80 0 127 -42.5t47 -121.5v-281q0 -42 22 -60.5t61 -6.5l1 -22q-44 -13 -73 9t-30 69v4q-36 -41 -85 -66t-100 -25z" />
    <glyph glyph-name="abreve.o" horiz-adv-x="526" 
d="M263 623q-68 0 -107 34t-40 103h22q1 -118 125 -118t125 118h23q-1 -69 -40.5 -103t-107.5 -34zM217 11q49 0 95.5 24.5t79.5 64.5v169h-171q-62 0 -101.5 -34.5t-39.5 -96.5q0 -60 38.5 -93.5t98.5 -33.5zM213 -11q-67 0 -112.5 39t-45.5 106q0 73 46 115t119 42h172v74
q0 69 -40 106.5t-110 37.5q-86 0 -141 -46v27q54 42 142 42q80 0 127 -42.5t47 -121.5v-281q0 -42 22 -60.5t61 -6.5l1 -22q-44 -13 -73 9t-30 69v4q-36 -41 -85 -66t-100 -25z" />
    <glyph glyph-name="aogonek.o" horiz-adv-x="526" 
d="M217 11q49 0 95.5 24.5t79.5 64.5v169h-171q-62 0 -101.5 -34.5t-39.5 -96.5q0 -60 38.5 -93.5t98.5 -33.5zM520 -174q-30 -8 -61 -8q-44 0 -72.5 22.5t-28.5 58.5q0 32 20 61.5t50 46.5q-28 22 -30 69v4q-36 -41 -85 -66t-100 -25q-67 0 -112.5 39t-45.5 106
q0 73 46 115t119 42h172v74q0 69 -40 106.5t-110 37.5q-86 0 -141 -46v27q54 42 142 42q80 0 127 -42.5t47 -121.5v-281q0 -42 22 -60.5t61 -6.5l1 -22q-34 -10 -60 2q-63 -39 -63 -96q0 -30 23.5 -48t60.5 -18q33 0 56 9z" />
    <glyph glyph-name="aringacute.o" horiz-adv-x="526" 
d="M234 868q66 88 100 150h37q-49 -75 -115 -150h-22zM248 610q-47 0 -74.5 28.5t-27.5 81.5t27.5 81.5t74.5 28.5t74.5 -28.5t27.5 -81.5t-27.5 -81.5t-74.5 -28.5zM248 628q38 0 59.5 24t21.5 68q0 43 -21.5 67.5t-59.5 24.5t-59.5 -24.5t-21.5 -67.5q0 -44 21.5 -68
t59.5 -24zM217 11q49 0 95.5 24.5t79.5 64.5v169h-171q-62 0 -101.5 -34.5t-39.5 -96.5q0 -60 38.5 -93.5t98.5 -33.5zM213 -11q-67 0 -112.5 39t-45.5 106q0 73 46 115t119 42h172v74q0 69 -40 106.5t-110 37.5q-86 0 -141 -46v27q54 42 142 42q80 0 127 -42.5t47 -121.5
v-281q0 -42 22 -60.5t61 -6.5l1 -22q-44 -13 -73 9t-30 69v4q-36 -41 -85 -66t-100 -25z" />
    <glyph glyph-name="c.o" horiz-adv-x="483" 
d="M93 261q0 -123 58.5 -185t152.5 -62q74 0 128 35v-27q-50 -31 -131 -31q-103 0 -168 68.5t-65 201.5q0 132 65.5 201.5t168.5 69.5q77 0 130 -33v-26q-52 35 -127 35q-95 0 -153.5 -63t-58.5 -184z" />
    <glyph glyph-name="ccedilla.o" horiz-adv-x="483" 
d="M272 -182q-68 0 -101 52l15 12q29 -46 86 -46q35 0 58 14.5t23 42.5q0 54 -93 63v38q-86 13 -139 80.5t-53 186.5q0 132 65.5 201.5t168.5 69.5q77 0 130 -33v-26q-52 35 -127 35q-95 0 -153.5 -63t-58.5 -184q0 -123 58.5 -185t152.5 -62q74 0 128 35v-27
q-50 -31 -131 -31q-15 0 -22 1v-24q45 -5 70.5 -24t25.5 -51q0 -36 -29.5 -55.5t-73.5 -19.5z" />
    <glyph glyph-name="cacute.o" horiz-adv-x="483" 
d="M229 607q63 82 100 150h37q-53 -81 -115 -150h-22zM93 261q0 -123 58.5 -185t152.5 -62q74 0 128 35v-27q-50 -31 -131 -31q-103 0 -168 68.5t-65 201.5q0 132 65.5 201.5t168.5 69.5q77 0 130 -33v-26q-52 35 -127 35q-95 0 -153.5 -63t-58.5 -184z" />
    <glyph glyph-name="ccircumflex.o" horiz-adv-x="483" 
d="M120 618l-12 14q79 60 148 129h20q74 -71 151 -129l-12 -14q-74 51 -149 120q-65 -63 -146 -120zM93 261q0 -123 58.5 -185t152.5 -62q74 0 128 35v-27q-50 -31 -131 -31q-103 0 -168 68.5t-65 201.5q0 132 65.5 201.5t168.5 69.5q77 0 130 -33v-26q-52 35 -127 35
q-95 0 -153.5 -63t-58.5 -184z" />
    <glyph glyph-name="cdotaccent.o" horiz-adv-x="483" 
d="M257 649q-10 0 -16.5 6.5t-6.5 16.5q0 23 23 23t23 -23t-23 -23zM93 261q0 -123 58.5 -185t152.5 -62q74 0 128 35v-27q-50 -31 -131 -31q-103 0 -168 68.5t-65 201.5q0 132 65.5 201.5t168.5 69.5q77 0 130 -33v-26q-52 35 -127 35q-95 0 -153.5 -63t-58.5 -184z" />
    <glyph glyph-name="ccaron.o" horiz-adv-x="483" 
d="M248 614q-58 57 -150 129l12 14q75 -54 148 -120q67 63 146 120l13 -14q-92 -71 -149 -129h-20zM93 261q0 -123 58.5 -185t152.5 -62q74 0 128 35v-27q-50 -31 -131 -31q-103 0 -168 68.5t-65 201.5q0 132 65.5 201.5t168.5 69.5q77 0 130 -33v-26q-52 35 -127 35
q-95 0 -153.5 -63t-58.5 -184z" />
    <glyph glyph-name="e.o" horiz-adv-x="522" 
d="M275 509q-82 0 -129 -55t-52 -166h345v12q0 101 -45.5 155t-118.5 54zM438 23q-59 -32 -139 -32q-111 0 -171 67.5t-60 204.5q0 133 55 201t152 68q83 0 136 -61.5t53 -172.5v-33h-370l-1 -2q0 -249 206 -249q83 0 139 38v-29z" />
    <glyph glyph-name="egrave.o" horiz-adv-x="522" 
d="M287 607q-63 69 -115 150h33q50 -85 102 -150h-20zM275 509q-82 0 -129 -55t-52 -166h345v12q0 101 -45.5 155t-118.5 54zM438 23q-59 -32 -139 -32q-111 0 -171 67.5t-60 204.5q0 133 55 201t152 68q83 0 136 -61.5t53 -172.5v-33h-370l-1 -2q0 -249 206 -249
q83 0 139 38v-29z" />
    <glyph glyph-name="eacute.o" horiz-adv-x="522" 
d="M214 607q62 79 101 150h37q-49 -74 -115 -150h-23zM275 509q-82 0 -129 -55t-52 -166h345v12q0 101 -45.5 155t-118.5 54zM438 23q-59 -32 -139 -32q-111 0 -171 67.5t-60 204.5q0 133 55 201t152 68q83 0 136 -61.5t53 -172.5v-33h-370l-1 -2q0 -249 206 -249
q83 0 139 38v-29z" />
    <glyph glyph-name="ecircumflex.o" horiz-adv-x="522" 
d="M114 618l-12 14q84 65 148 129h20q74 -71 151 -129l-12 -14q-74 51 -149 120q-70 -67 -146 -120zM275 509q-82 0 -129 -55t-52 -166h345v12q0 101 -45.5 155t-118.5 54zM438 23q-59 -32 -139 -32q-111 0 -171 67.5t-60 204.5q0 133 55 201t152 68q83 0 136 -61.5
t53 -172.5v-33h-370l-1 -2q0 -249 206 -249q83 0 139 38v-29z" />
    <glyph glyph-name="edieresis.o" horiz-adv-x="522" 
d="M322 649q-22 0 -22 23t22 23q25 0 25 -23q0 -10 -7 -16.5t-18 -6.5zM200 649q-23 0 -23 23t23 23q24 0 24 -23q0 -10 -7 -16.5t-17 -6.5zM275 509q-82 0 -129 -55t-52 -166h345v12q0 101 -45.5 155t-118.5 54zM438 23q-59 -32 -139 -32q-111 0 -171 67.5t-60 204.5
q0 133 55 201t152 68q83 0 136 -61.5t53 -172.5v-33h-370l-1 -2q0 -249 206 -249q83 0 139 38v-29z" />
    <glyph glyph-name="emacron.o" horiz-adv-x="522" 
d="M125 668v21h272v-21h-272zM275 509q-82 0 -129 -55t-52 -166h345v12q0 101 -45.5 155t-118.5 54zM438 23q-59 -32 -139 -32q-111 0 -171 67.5t-60 204.5q0 133 55 201t152 68q83 0 136 -61.5t53 -172.5v-33h-370l-1 -2q0 -249 206 -249q83 0 139 38v-29z" />
    <glyph glyph-name="ebreve.o" horiz-adv-x="522" 
d="M261 623q-68 0 -107 34t-40 103h22q1 -118 125 -118t125 118h23q-1 -69 -40.5 -103t-107.5 -34zM275 509q-82 0 -129 -55t-52 -166h345v12q0 101 -45.5 155t-118.5 54zM438 23q-59 -32 -139 -32q-111 0 -171 67.5t-60 204.5q0 133 55 201t152 68q83 0 136 -61.5
t53 -172.5v-33h-370l-1 -2q0 -249 206 -249q83 0 139 38v-29z" />
    <glyph glyph-name="edotaccent.o" horiz-adv-x="522" 
d="M261 649q-10 0 -16.5 6.5t-6.5 16.5q0 23 23 23q24 0 24 -23t-24 -23zM275 509q-82 0 -129 -55t-52 -166h345v12q0 101 -45.5 155t-118.5 54zM438 23q-59 -32 -139 -32q-111 0 -171 67.5t-60 204.5q0 133 55 201t152 68q83 0 136 -61.5t53 -172.5v-33h-370l-1 -2
q0 -249 206 -249q83 0 139 38v-29z" />
    <glyph glyph-name="eogonek.o" horiz-adv-x="522" 
d="M275 509q-82 0 -129 -55t-52 -166h345v12q0 101 -45.5 155t-118.5 54zM451 -174q-30 -8 -61 -8q-44 0 -72.5 22.5t-28.5 58.5q0 54 50 94q-26 -2 -40 -2q-111 0 -171 67.5t-60 204.5q0 133 55 201t152 68q83 0 136 -61.5t53 -172.5v-33h-370l-1 -2q0 -249 206 -249
q83 0 139 38v-29q-27 -15 -69 -25q-60 -39 -60 -94q0 -30 23.5 -48t60.5 -18q33 0 56 9z" />
    <glyph glyph-name="ecaron.o" horiz-adv-x="522" 
d="M250 614q-58 57 -150 129l12 14q75 -54 148 -120q69 65 147 120l12 -14q-92 -71 -149 -129h-20zM275 509q-82 0 -129 -55t-52 -166h345v12q0 101 -45.5 155t-118.5 54zM438 23q-59 -32 -139 -32q-111 0 -171 67.5t-60 204.5q0 133 55 201t152 68q83 0 136 -61.5
t53 -172.5v-33h-370l-1 -2q0 -249 206 -249q83 0 139 38v-29z" />
    <glyph glyph-name="f.o" horiz-adv-x="358" 
d="M147 0v499h-115v23h115v49q0 39 11.5 68.5t31 46.5t44 25.5t50.5 7t52 -10.5v-23q-59 23 -111 -4t-52 -110v-49h163v-23h-163v-499h-26z" />
    <glyph glyph-name="j.o" horiz-adv-x="262" 
d="M135 649q-22 0 -22 23t22 23q25 0 25 -23q0 -10 -7 -16.5t-18 -6.5zM26 -181q-31 0 -64 11v25q38 -12 63 -12q44 0 71 27.5t27 85.5v566h25v-566q0 -69 -34 -103t-88 -34z" />
    <glyph glyph-name="r.o" horiz-adv-x="382" 
d="M124 -1h-25v522h25v-107q30 53 76.5 84t102.5 31q36 0 62 -11v-25q-30 13 -64 13q-55 0 -100.5 -31.5t-76.5 -86.5v-389z" />
    <glyph glyph-name="racute.o" horiz-adv-x="382" 
d="M185 607q57 73 101 150h36q-48 -75 -115 -150h-22zM124 -1h-25v522h25v-107q30 53 76.5 84t102.5 31q36 0 62 -11v-25q-30 13 -64 13q-55 0 -100.5 -31.5t-76.5 -86.5v-389z" />
    <glyph glyph-name="rcommaaccent.o" horiz-adv-x="382" 
d="M124 -1h-25v522h25v-107q30 53 76.5 84t102.5 31q36 0 62 -11v-25q-30 13 -64 13q-55 0 -100.5 -31.5t-76.5 -86.5v-389zM51 -211q30 67 45 132h35q-19 -65 -60 -132h-20z" />
    <glyph glyph-name="rcaron.o" horiz-adv-x="382" 
d="M217 614q-59 59 -150 129l12 14q80 -58 149 -120q66 63 146 120l12 -14q-88 -68 -148 -129h-21zM124 -1h-25v522h25v-107q30 53 76.5 84t102.5 31q36 0 62 -11v-25q-30 13 -64 13q-55 0 -100.5 -31.5t-76.5 -86.5v-389z" />
    <glyph glyph-name="s.o" horiz-adv-x="483" 
d="M240 -9q-114 0 -178 43v27q63 -47 178 -47q71 0 117.5 28.5t46.5 84.5q0 52 -38 78t-122 44q-96 21 -137 51t-41 93q0 65 49.5 102t125.5 37q98 0 157 -41v-28q-57 45 -157 45q-64 0 -107.5 -30t-43.5 -84q0 -53 36.5 -77t125.5 -44q92 -20 134.5 -51.5t42.5 -92.5
q0 -65 -54.5 -101.5t-134.5 -36.5z" />
    <glyph glyph-name="sacute.o" horiz-adv-x="483" 
d="M193 607q57 73 101 150h36q-48 -75 -115 -150h-22zM240 -9q-114 0 -178 43v27q63 -47 178 -47q71 0 117.5 28.5t46.5 84.5q0 52 -38 78t-122 44q-96 21 -137 51t-41 93q0 65 49.5 102t125.5 37q98 0 157 -41v-28q-57 45 -157 45q-64 0 -107.5 -30t-43.5 -84
q0 -53 36.5 -77t125.5 -44q92 -20 134.5 -51.5t42.5 -92.5q0 -65 -54.5 -101.5t-134.5 -36.5z" />
    <glyph glyph-name="scircumflex.o" horiz-adv-x="483" 
d="M86 618l-12 14q83 63 149 129h20q78 -74 150 -129l-12 -14q-76 53 -148 120q-67 -64 -147 -120zM240 -9q-114 0 -178 43v27q63 -47 178 -47q71 0 117.5 28.5t46.5 84.5q0 52 -38 78t-122 44q-96 21 -137 51t-41 93q0 65 49.5 102t125.5 37q98 0 157 -41v-28
q-57 45 -157 45q-64 0 -107.5 -30t-43.5 -84q0 -53 36.5 -77t125.5 -44q92 -20 134.5 -51.5t42.5 -92.5q0 -65 -54.5 -101.5t-134.5 -36.5z" />
    <glyph glyph-name="scedilla.o" horiz-adv-x="483" 
d="M257 -182q-67 0 -102 52l16 12q29 -46 86 -46q35 0 57.5 14.5t22.5 42.5q0 54 -92 63v35h-5q-114 0 -178 43v27q63 -47 178 -47q71 0 117.5 28.5t46.5 84.5q0 52 -38 78t-122 44q-96 21 -137 51t-41 93q0 65 49.5 102t125.5 37q98 0 157 -41v-28q-57 45 -157 45
q-64 0 -107.5 -30t-43.5 -84q0 -53 36.5 -77t125.5 -44q92 -20 134.5 -51.5t42.5 -92.5q0 -60 -46.5 -95.5t-118.5 -41.5v-24q45 -5 70.5 -24t25.5 -51q0 -36 -29.5 -55.5t-73.5 -19.5z" />
    <glyph glyph-name="scaron.o" horiz-adv-x="483" 
d="M225 614q-61 60 -151 129l12 14q80 -58 149 -120q66 63 146 120l12 -14q-88 -68 -148 -129h-20zM240 -9q-114 0 -178 43v27q63 -47 178 -47q71 0 117.5 28.5t46.5 84.5q0 52 -38 78t-122 44q-96 21 -137 51t-41 93q0 65 49.5 102t125.5 37q98 0 157 -41v-28
q-57 45 -157 45q-64 0 -107.5 -30t-43.5 -84q0 -53 36.5 -77t125.5 -44q92 -20 134.5 -51.5t42.5 -92.5q0 -65 -54.5 -101.5t-134.5 -36.5z" />
    <glyph glyph-name="scommaaccent.o" horiz-adv-x="483" 
d="M240 -9q-114 0 -178 43v27q63 -47 178 -47q71 0 117.5 28.5t46.5 84.5q0 52 -38 78t-122 44q-96 21 -137 51t-41 93q0 65 49.5 102t125.5 37q98 0 157 -41v-28q-57 45 -157 45q-64 0 -107.5 -30t-43.5 -84q0 -53 36.5 -77t125.5 -44q92 -20 134.5 -51.5t42.5 -92.5
q0 -65 -54.5 -101.5t-134.5 -36.5zM178 -211q30 67 45 132h35q-19 -65 -60 -132h-20z" />
    <glyph glyph-name="t.o" horiz-adv-x="369" 
d="M258 -8q-60 0 -92 40t-32 119v348h-110v23h110v144h26v-144h171v-23h-171v-349q0 -135 100 -135q40 0 71 13v-22q-34 -14 -73 -14z" />
    <glyph glyph-name="tcedilla.o" horiz-adv-x="369" 
d="M245 -182q-67 0 -102 52l16 12q29 -46 86 -46q35 0 57.5 14.5t22.5 42.5q0 54 -92 63v38q-99 15 -99 157v348h-110v23h110v144h26v-144h171v-23h-171v-349q0 -135 100 -135q40 0 71 13v-22q-34 -14 -73 -14h-6v-24q45 -5 70.5 -24t25.5 -51q0 -36 -29.5 -55.5
t-73.5 -19.5z" />
    <glyph glyph-name="tcaron.o" horiz-adv-x="369" 
d="M276 636q30 74 39 142h28q-12 -75 -47 -142h-20zM258 -8q-60 0 -92 40t-32 119v348h-110v23h110v144h26v-144h171v-23h-171v-349q0 -135 100 -135q40 0 71 13v-22q-34 -14 -73 -14z" />
    <glyph glyph-name="tcommaaccent.o" horiz-adv-x="369" 
d="M258 -8q-60 0 -92 40t-32 119v348h-110v23h110v144h26v-144h171v-23h-171v-349q0 -135 100 -135q40 0 71 13v-22q-34 -14 -73 -14zM170 -211q31 68 44 132h36q-17 -60 -60 -132h-20z" />
    <glyph glyph-name="y.o" horiz-adv-x="490" 
d="M98 -181q-24 0 -53 8v23q36 -9 54 -9q36 0 65.5 27t47.5 77l21 56l-194 520l26 2l181 -492l181 492l26 -2l-221 -588q-21 -56 -57.5 -85t-76.5 -29z" />
    <glyph glyph-name="yacute.o" horiz-adv-x="490" 
d="M184 607q57 73 101 150h36q-48 -75 -115 -150h-22zM98 -181q-24 0 -53 8v23q36 -9 54 -9q36 0 65.5 27t47.5 77l21 56l-194 520l26 2l181 -492l181 492l26 -2l-221 -588q-21 -56 -57.5 -85t-76.5 -29z" />
    <glyph glyph-name="ydieresis.o" horiz-adv-x="490" 
d="M306 649q-22 0 -22 23t22 23q24 0 24 -23t-24 -23zM184 649q-23 0 -23 23t23 23t23 -23q0 -10 -6.5 -16.5t-16.5 -6.5zM98 -181q-24 0 -53 8v23q36 -9 54 -9q36 0 65.5 27t47.5 77l21 56l-194 520l26 2l181 -492l181 492l26 -2l-221 -588q-21 -56 -57.5 -85t-76.5 -29z
" />
    <glyph glyph-name="ycircumflex.o" horiz-adv-x="490" 
d="M98 618l-13 14q83 63 149 129h20q72 -69 150 -129l-12 -14q-70 48 -148 120q-66 -63 -146 -120zM98 -181q-24 0 -53 8v23q36 -9 54 -9q36 0 65.5 27t47.5 77l21 56l-194 520l26 2l181 -492l181 492l26 -2l-221 -588q-21 -56 -57.5 -85t-76.5 -29z" />
    <glyph glyph-name="ygrave.o" horiz-adv-x="490" 
d="M270 607q-62 69 -115 150h34q50 -85 102 -150h-21zM98 -181q-24 0 -53 8v23q36 -9 54 -9q36 0 65.5 27t47.5 77l21 56l-194 520l26 2l181 -492l181 492l26 -2l-221 -588q-21 -56 -57.5 -85t-76.5 -29z" />
    <glyph glyph-name="two.o" horiz-adv-x="626" 
d="M110 0v80q0 92 46.5 144.5t153.5 100.5q109 50 150.5 91.5t41.5 109.5q0 73 -55.5 114.5t-151.5 41.5q-101 0 -164 -34v25q66 32 164 32q106 0 169 -48t63 -131q0 -75 -46.5 -123t-158.5 -99q-104 -48 -145.5 -95.5t-41.5 -128.5v-57h399v-23h-424z" />
    <glyph glyph-name="three.o" horiz-adv-x="626" 
d="M262 -9q-110 0 -186 39v26q79 -43 186 -43q112 0 180 46.5t68 134.5q0 79 -48.5 122.5t-161.5 43.5h-94v23h99q104 0 146.5 35t42.5 106q0 79 -68 119t-167 40q-96 0 -163 -37v27q67 32 163 32q110 0 185 -46t75 -135q0 -140 -160 -152q91 -9 134 -57t43 -121
q0 -97 -75.5 -150t-198.5 -53z" />
    <glyph glyph-name="five.o" horiz-adv-x="626" 
d="M284 -11q-87 0 -164 34v25q83 -36 164 -36q109 0 173 51.5t64 142.5q0 97 -55 146.5t-142 49.5h-202v294h398v-22h-373v-247h179q96 0 158.5 -56t62.5 -165q0 -100 -72.5 -158.5t-190.5 -58.5z" />
    <glyph glyph-name="six.o" horiz-adv-x="626" 
d="M356 705q84 0 146 -31v-25q-64 33 -146 33q-117 0 -179.5 -72t-62.5 -199v-99q20 59 73.5 91.5t131.5 32.5q100 0 159.5 -58t59.5 -158q0 -106 -58.5 -168.5t-166.5 -62.5q-107 0 -166 68.5t-59 182.5v171q0 136 70 215t198 79zM114 233q0 -100 51.5 -160.5t147.5 -60.5
t147.5 55.5t51.5 149.5q0 92 -52.5 144t-146.5 52q-93 0 -146 -48t-53 -132z" />
    <glyph glyph-name="nine.o" horiz-adv-x="626" 
d="M511 461q0 100 -51.5 160.5t-147.5 60.5t-147 -55.5t-51 -149.5q0 -92 52.5 -144.5t145.5 -52.5t146 48.5t53 132.5zM269 -11q-84 0 -146 31v25q64 -33 146 -33q118 0 180 72t62 200v98q-20 -59 -73.5 -91.5t-131.5 -32.5q-101 0 -160 58t-59 159q0 105 58.5 167.5
t166.5 62.5q107 0 166 -68.5t59 -182.5v-170q0 -137 -70 -216t-198 -79z" />
    <glyph glyph-name="question.o" horiz-adv-x="490" 
d="M210 682q-87 0 -153 -36v27q67 32 152 32q102 0 161.5 -52t59.5 -140q0 -181 -231 -198l-2 -130h-20l-1 146q125 10 176.5 54.5t51.5 127.5q0 78 -52 123.5t-142 45.5zM186 -4q-25 0 -25 27q0 28 25 28q26 0 26 -28q0 -27 -26 -27z" />
    </font>
</defs>
</svg>
