<?xml version="1.0" standalone="no"?>
<!DOCTYPE svg PUBLIC "-//W3C//DTD SVG 1.1//EN" "http://www.w3.org/Graphics/SVG/1.1/DTD/svg11.dtd" >
<svg xmlns="http://www.w3.org/2000/svg" xmlns:xlink="http://www.w3.org/1999/xlink" version="1.1">
<metadata>
Created by FontForge 20190801 at Sun Jul 10 09:11:47 2016
 By www-data
(c) Copyright David Jonathan Ross, 2016. All rights reserved.
</metadata>
<defs>
<font id="OutputSansBold" horiz-adv-x="592" >
  <font-face 
    font-family="OutputSansBold"
    font-weight="700"
    font-stretch="semi-condensed"
    units-per-em="1000"
    panose-1="0 0 0 0 0 0 0 2 0 0"
    ascent="761"
    descent="-239"
    x-height="522"
    cap-height="696"
    bbox="-197 -251 1233 1174"
    underline-thickness="0"
    underline-position="0"
    unicode-range="U+0020-FEFF"
  />
<missing-glyph horiz-adv-x="691" 
d="M37 -217v957h617v-957h-617zM124 -131h443v784h-443v-784z" />
    <glyph glyph-name=".notdef" horiz-adv-x="691" 
d="M37 -217v957h617v-957h-617zM124 -131h443v784h-443v-784z" />
    <glyph glyph-name=".null" horiz-adv-x="0" 
 />
    <glyph glyph-name="nonmarkingreturn" horiz-adv-x="333" 
 />
    <glyph glyph-name="space" unicode=" " horiz-adv-x="274" 
 />
    <glyph glyph-name="space" unicode="&#xa0;" horiz-adv-x="274" 
 />
    <glyph glyph-name="exclam" unicode="!" horiz-adv-x="330" 
d="M108 221l-23 475h160l-23 -475h-114zM168 -6q-39 0 -61 21t-22 58q0 36 22 57t61 21q37 0 58.5 -21.5t21.5 -56.5q0 -37 -21.5 -58t-58.5 -21z" />
    <glyph glyph-name="quotedbl" unicode="&#x22;" horiz-adv-x="522" 
d="M332 413l-21 283h128l-21 -283h-86zM105 413l-22 283h130l-23 -283h-85z" />
    <glyph glyph-name="numbersign" unicode="#" horiz-adv-x="770" 
d="M446 253l9 190h-131l-8 -190h130zM435 0l8 161h-132l-7 -161h-113l7 161h-121v92h126l7 190h-133v93h138l8 160h113l-7 -160h130l7 160h113l-6 -160h120v-93h-125l-8 -190h133v-92h-137l-7 -161h-114z" />
    <glyph glyph-name="dollar" unicode="$" horiz-adv-x="611" 
d="M191 492q0 -25 18 -41.5t61 -30.5v143q-79 -12 -79 -71zM430 206q0 28 -20.5 46t-69.5 34v-155q90 10 90 75zM349 -44h-87v83q-116 7 -200 69l29 89q88 -58 179 -66v174q-110 27 -154.5 64.5t-44.5 109.5q0 69 49.5 117.5t141.5 59.5v84h87v-83q109 -10 170 -56l-25 -89
q-81 48 -154 53v-166q118 -29 164.5 -68.5t46.5 -113.5q0 -71 -53 -118t-149 -57v-86z" />
    <glyph glyph-name="percent" unicode="%" horiz-adv-x="936" 
d="M226 328q-84 0 -130.5 47t-46.5 143q0 94 47 140.5t130 46.5q81 0 127.5 -45.5t46.5 -137.5q0 -99 -46 -146.5t-128 -47.5zM209 0l400 696h121l-399 -696h-122zM226 412q32 0 47.5 22t15.5 87q0 58 -16 79.5t-47 21.5q-33 0 -48.5 -21.5t-15.5 -79.5q0 -65 15.5 -87
t48.5 -22zM712 -11q-83 0 -129.5 47t-46.5 144q0 94 47 140t129 46t128.5 -45.5t46.5 -137.5q0 -99 -46.5 -146.5t-128.5 -47.5zM712 72q32 0 47.5 22.5t15.5 87.5q0 58 -15.5 80t-47.5 22t-48 -22.5t-16 -79.5q0 -65 15.5 -87.5t48.5 -22.5z" />
    <glyph glyph-name="ampersand" unicode="&#x26;" horiz-adv-x="713" 
d="M264 517q0 -45 19 -92q120 47 120 124q0 30 -17 46.5t-48 16.5q-35 0 -54.5 -26.5t-19.5 -68.5zM295 87q62 0 111 43q-109 84 -178 177q-49 -44 -49 -112q0 -53 30.5 -80.5t85.5 -27.5zM642 -4q-75 28 -155 78q-85 -83 -204 -83q-102 0 -168 51t-66 142q0 130 132 200
q-36 70 -36 131q0 82 55.5 136t141.5 54q77 0 127 -38t50 -107q0 -127 -197 -205q53 -74 145 -143q31 56 63 154l100 -31q-35 -104 -79 -178q61 -35 132 -67z" />
    <glyph glyph-name="quotesingle" unicode="'" horiz-adv-x="329" 
d="M123 413l-22 283h129l-23 -283h-84z" />
    <glyph glyph-name="parenleft" unicode="(" horiz-adv-x="464" 
d="M395 -183q-164 31 -242.5 146t-78.5 298q0 181 79 297.5t242 146.5l15 -92q-109 -30 -156 -117t-47 -235t46.5 -232.5t156.5 -115.5z" />
    <glyph glyph-name="parenright" unicode=")" horiz-adv-x="464" 
d="M386 261q0 -183 -78 -298.5t-242 -145.5l-14 96q108 30 155 116t47 232q0 144 -47.5 233t-154.5 119l14 92q163 -30 241.5 -146.5t78.5 -297.5z" />
    <glyph glyph-name="asterisk" unicode="*" horiz-adv-x="516" 
d="M396 351l-120 111l25 -165h-86l25 164l-121 -110l-43 77l150 70l-150 69l43 77l121 -111l-25 163h86l-25 -164l120 112l45 -77l-150 -69l150 -70z" />
    <glyph glyph-name="plus" unicode="+" horiz-adv-x="626" 
d="M259 35v217h-192v106h192v217h107v-217h193v-106h-193v-217h-107z" />
    <glyph glyph-name="comma" unicode="," horiz-adv-x="316" 
d="M55 -135q40 164 49 298h139q-12 -98 -41 -165t-77 -133h-70z" />
    <glyph glyph-name="hyphen" unicode="-" horiz-adv-x="518" 
d="M67 252v106h384v-106h-384z" />
    <glyph glyph-name="hyphen" unicode="&#x2011;" horiz-adv-x="518" 
d="M67 252v106h384v-106h-384z" />
    <glyph glyph-name="hyphen" unicode="&#x2010;" horiz-adv-x="518" 
d="M67 252v106h384v-106h-384z" />
    <glyph glyph-name="hyphen" unicode="&#xad;" horiz-adv-x="518" 
d="M67 252v106h384v-106h-384z" />
    <glyph glyph-name="period" unicode="." horiz-adv-x="316" 
d="M159 -5q-39 0 -62 23t-23 64q0 38 23 61t62 23q38 0 60.5 -23t22.5 -61q0 -41 -23 -64t-60 -23z" />
    <glyph glyph-name="slash" unicode="/" horiz-adv-x="486" 
d="M28 -174l320 870h109l-319 -870h-110z" />
    <glyph glyph-name="zero" unicode="0" horiz-adv-x="626" 
d="M313 -9q-122 0 -192.5 89t-70.5 276q0 177 71 263t193 86q121 0 191.5 -86t70.5 -263q0 -187 -70.5 -276t-192.5 -89zM313 95q64 0 97.5 59t33.5 202q0 246 -131 246q-132 0 -132 -246q0 -143 34 -202t98 -59z" />
    <glyph glyph-name="one" unicode="1" horiz-adv-x="626" 
d="M106 0v104h173v420q-20 -51 -71.5 -85t-109.5 -35l-9 116q76 1 128 49t65 127h130v-592h162v-104h-468z" />
    <glyph glyph-name="two" unicode="2" horiz-adv-x="626" 
d="M68 0v131q0 90 52.5 145.5t162.5 95.5q87 34 113.5 60t26.5 71q0 49 -27.5 76.5t-76.5 27.5q-53 0 -80 -30t-35 -95l-132 9q18 214 250 214q112 0 172.5 -54t60.5 -148q0 -85 -44.5 -134t-159.5 -92q-89 -34 -120 -63t-31 -81v-30h363v-103h-495z" />
    <glyph glyph-name="three" unicode="3" horiz-adv-x="626" 
d="M316 -9q-118 0 -182.5 47.5t-80.5 147.5l128 25q15 -66 46.5 -92.5t88.5 -26.5q115 0 115 110q0 63 -27 88.5t-92 25.5h-89v102h89q56 0 80 20t24 70q0 96 -104 96q-48 0 -73.5 -22.5t-37.5 -74.5l-126 26q32 172 237 172q107 0 171.5 -49t64.5 -141q0 -64 -39 -101.5
t-97 -43.5q64 -7 108 -53.5t44 -118.5q0 -102 -64 -154.5t-184 -52.5z" />
    <glyph glyph-name="four" unicode="4" horiz-adv-x="626" 
d="M600 177h-113v-177h-133v177h-305v96l285 423h153v-423h113v-96zM171 273h183v278z" />
    <glyph glyph-name="five" unicode="5" horiz-adv-x="626" 
d="M314 -9q-235 0 -257 209l133 14q9 -67 38.5 -96t84.5 -29q57 0 87.5 35.5t30.5 105.5q0 66 -29.5 100.5t-85.5 34.5q-70 0 -103 -45l-132 2v374h457v-97h-325v-170q55 43 134 43q105 0 161 -60.5t56 -178.5q0 -110 -68 -176t-182 -66z" />
    <glyph glyph-name="six" unicode="6" horiz-adv-x="626" 
d="M580 222q0 -108 -70 -169.5t-196 -61.5q-127 0 -196.5 72t-69.5 202v140q0 146 68.5 223t198.5 77q217 0 258 -167l-134 -34q-14 53 -44 77t-81 24q-71 0 -102.5 -42t-31.5 -145v-49q52 66 174 66q109 0 167.5 -54t58.5 -159zM180 217q0 -128 133 -128t133 128
q0 129 -133 129t-133 -129z" />
    <glyph glyph-name="seven" unicode="7" horiz-adv-x="626" 
d="M208 0q42 215 83 324.5t138 264.5h-366v107h499v-107q-100 -179 -143 -296t-70 -293h-141z" />
    <glyph glyph-name="eight" unicode="8" horiz-adv-x="626" 
d="M312 -9q-125 0 -195 53.5t-70 148.5q0 75 41 121t113 53q-64 6 -101 45.5t-37 104.5q0 88 66.5 138t182.5 50q118 0 184.5 -49t66.5 -137q0 -66 -37 -106t-102 -46q72 -7 113.5 -52t41.5 -120q0 -96 -70.5 -150t-196.5 -54zM195 509q0 -94 117 -94q118 0 118 93
q0 96 -118 96q-117 0 -117 -95zM179 203q0 -111 133 -111t133 110q0 115 -133 115t-133 -114z" />
    <glyph glyph-name="nine" unicode="9" horiz-adv-x="626" 
d="M179 479q0 -128 133 -128t133 128t-133 128t-133 -128zM310 -9q-216 0 -257 168l133 33q15 -53 45 -77t81 -24q71 0 102 42t31 145v49q-52 -66 -174 -66q-109 0 -167 54t-58 160q0 107 70 168.5t196 61.5t195.5 -72t69.5 -202v-140q0 -146 -68 -223t-199 -77z" />
    <glyph glyph-name="colon" unicode=":" horiz-adv-x="336" 
d="M169 331q-39 0 -62 23.5t-23 63.5q0 39 23.5 62t61.5 23q37 0 60 -23t23 -62q0 -40 -23 -63.5t-60 -23.5zM169 -5q-39 0 -62 23t-23 64q0 38 23.5 61.5t61.5 23.5q37 0 60 -23.5t23 -61.5q0 -40 -23 -63.5t-60 -23.5z" />
    <glyph glyph-name="semicolon" unicode=";" horiz-adv-x="336" 
d="M169 331q-39 0 -62 23.5t-23 63.5q0 39 23.5 62t61.5 23q37 0 60 -23t23 -62q0 -40 -23 -63.5t-60 -23.5zM61 -135q25 79 32.5 130.5t14.5 153.5h143q-7 -56 -17 -96.5t-28.5 -75.5t-31.5 -54t-43 -58h-70z" />
    <glyph glyph-name="less" unicode="&#x3c;" horiz-adv-x="626" 
d="M551 15l-475 226v127l475 227v-108l-385 -182l385 -182v-108z" />
    <glyph glyph-name="equal" unicode="=" horiz-adv-x="626" 
d="M67 387v106h492v-106h-492zM67 117v106h492v-106h-492z" />
    <glyph glyph-name="greater" unicode="&#x3e;" horiz-adv-x="626" 
d="M76 15v103l395 187l-395 187v103l475 -227v-127z" />
    <glyph glyph-name="question" unicode="?" horiz-adv-x="584" 
d="M298 216h-108l-3 152q220 23 220 134q0 46 -32 73.5t-90 27.5q-111 0 -187 -93l-62 87q94 108 253 108q109 0 180 -56t71 -155q0 -88 -63.5 -142t-175.5 -75zM243 -6q-39 0 -60.5 21t-21.5 58q0 36 21.5 57t60.5 21q37 0 58.5 -21t21.5 -57q0 -37 -21.5 -58t-58.5 -21z
" />
    <glyph glyph-name="at" unicode="@" horiz-adv-x="937" 
d="M529 -172q-202 0 -324.5 114.5t-122.5 321.5q0 211 107 331t281 120q169 0 277 -117.5t108 -302.5q0 -110 -40.5 -175.5t-126.5 -65.5q-91 0 -130 61q-52 -61 -127 -61q-71 0 -116.5 50.5t-45.5 140.5q0 113 60 174.5t153 61.5q81 0 157 -30v-207q0 -53 13 -77t44 -25
q38 -1 54.5 39.5t16.5 113.5q0 152 -81.5 243t-217.5 91q-139 0 -218.5 -93t-79.5 -272q0 -169 96 -258.5t263 -89.5v-88zM442 142q47 0 91 44q-5 28 -5 57v142q-23 9 -48 9q-46 -1 -73 -38.5t-27 -110.5q0 -52 17 -77.5t45 -25.5z" />
    <glyph glyph-name="A" unicode="A" horiz-adv-x="647" 
d="M407 270l-89 287l-88 -287h177zM491 0l-52 168h-241l-52 -168h-124l238 696h129l237 -696h-135z" />
    <glyph glyph-name="B" unicode="B" horiz-adv-x="663" 
d="M77 0v696h266q115 0 177.5 -45.5t62.5 -129.5q0 -128 -140 -150q90 -7 133 -52t43 -118q0 -93 -65.5 -147t-184.5 -54h-292zM207 598v-189h141q56 0 80.5 23.5t24.5 72.5q0 48 -27 70.5t-89 22.5h-130zM207 316v-217h155q66 0 95.5 26.5t29.5 83.5q0 55 -29.5 81
t-95.5 26h-155z" />
    <glyph glyph-name="C" unicode="C" horiz-adv-x="651" 
d="M338 -9q-284 0 -284 366q0 171 72.5 259.5t212.5 88.5q118 0 186 -60t77 -165l-128 -24q-9 77 -39.5 112t-96.5 35q-76 0 -114 -58.5t-38 -187.5q0 -140 37.5 -201t114.5 -61q67 0 98 34t38 108l128 -24q-8 -102 -76.5 -162t-187.5 -60z" />
    <glyph glyph-name="D" unicode="D" horiz-adv-x="681" 
d="M77 0v696h262q131 0 209.5 -89t78.5 -256q0 -172 -78.5 -261.5t-210.5 -89.5h-261zM209 103h112q87 0 130 58t43 190q0 127 -43 184.5t-130 57.5h-112v-490z" />
    <glyph glyph-name="E" unicode="E" horiz-adv-x="580" 
d="M77 0v696h450v-103h-318v-169h279v-103h-279v-218h318v-103h-450z" />
    <glyph glyph-name="F" unicode="F" horiz-adv-x="569" 
d="M77 0v696h453v-103h-321v-190h266v-102h-266v-301h-132z" />
    <glyph glyph-name="G" unicode="G" horiz-adv-x="667" 
d="M615 288q0 -148 -73 -222.5t-200 -74.5q-139 0 -213.5 92t-74.5 274q0 169 74.5 258.5t210.5 89.5q113 0 181 -53t79 -147l-129 -23q-9 60 -39 90.5t-91 30.5q-77 0 -115.5 -59t-38.5 -187q0 -139 38 -200.5t114 -61.5q72 0 107 36.5t38 125.5h-141v103h273v-72z" />
    <glyph glyph-name="H" unicode="H" horiz-adv-x="691" 
d="M77 0v696h132v-263h272v263h133v-696h-133v330h-272v-330h-132z" />
    <glyph glyph-name="I" unicode="I" horiz-adv-x="496" 
d="M49 0v103h133v490h-133v103h398v-103h-133v-490h133v-103h-398z" />
    <glyph glyph-name="J" unicode="J" horiz-adv-x="580" 
d="M265 -9q-110 0 -172 59t-71 171l125 23q8 -77 34 -110.5t83 -33.5q110 0 110 141v455h132v-459q0 -111 -63.5 -178.5t-177.5 -67.5z" />
    <glyph glyph-name="K" unicode="K" horiz-adv-x="635" 
d="M463 0l-160 327l-97 -129v-198h-129v696h129v-341l260 340h144l-214 -277l212 -418h-145z" />
    <glyph glyph-name="L" unicode="L" horiz-adv-x="526" 
d="M77 0v696h132v-593h287v-103h-419z" />
    <glyph glyph-name="M" unicode="M" horiz-adv-x="785" 
d="M351 123l-156 328l4 -452l-122 1v696h127l193 -409l190 409h120v-696h-129l5 454l-155 -331h-77z" />
    <glyph glyph-name="N" unicode="N" horiz-adv-x="691" 
d="M472 0l-280 516v-516h-115v696h145l277 -502v502h115v-696h-142z" />
    <glyph glyph-name="O" unicode="O" horiz-adv-x="685" 
d="M342 -9q-138 0 -213 90.5t-75 274.5q0 173 76 261t213 88q138 0 213 -88t75 -260q0 -185 -75 -275.5t-214 -90.5zM342 95q80 0 118 59.5t38 202.5q0 132 -38.5 189t-117.5 57q-80 0 -118 -57.5t-38 -190.5q0 -142 38 -201t118 -59z" />
    <glyph glyph-name="P" unicode="P" horiz-adv-x="617" 
d="M77 0v696h234q123 0 193 -63t70 -182q0 -121 -69.5 -183.5t-192.5 -62.5h-103v-205h-132zM209 306h97q135 0 135 145q0 142 -135 142h-97v-287z" />
    <glyph glyph-name="Q" unicode="Q" horiz-adv-x="685" 
d="M578 -176q-142 -23 -207.5 18t-69.5 157q-119 12 -183 100.5t-64 256.5q0 173 76 261t213 88q138 0 213 -88t75 -260q0 -315 -225 -355q4 -54 41 -70t116 0zM342 95q81 0 118.5 59t37.5 203q0 132 -38 189t-118 57t-118 -57.5t-38 -190.5q0 -142 38 -201t118 -59z" />
    <glyph glyph-name="R" unicode="R" horiz-adv-x="647" 
d="M209 358h130q118 0 118 118q0 117 -118 117h-130v-235zM209 0h-132v696h285q105 0 166.5 -61.5t61.5 -156.5q0 -72 -39 -129.5t-109 -80.5l166 -268h-151l-159 256h-89v-256z" />
    <glyph glyph-name="S" unicode="S" horiz-adv-x="628" 
d="M300 -7q-152 0 -253 98l50 94q89 -89 214 -89q133 0 133 90q0 43 -33 65.5t-129 43.5q-115 24 -166 69.5t-51 128.5q0 93 64.5 151t175.5 58q149 0 239 -90l-44 -91q-89 80 -187 80q-117 0 -117 -87q0 -41 31 -64t126 -43q118 -26 170 -74t52 -132q0 -96 -73 -152
t-202 -56z" />
    <glyph glyph-name="T" unicode="T" horiz-adv-x="570" 
d="M218 0v593h-188v103h510v-103h-188v-593h-134z" />
    <glyph glyph-name="U" unicode="U" horiz-adv-x="677" 
d="M338 -9q-129 0 -197.5 73.5t-68.5 194.5v437h132v-429q0 -167 135 -167t135 167v429h132v-437q0 -119 -71 -193.5t-197 -74.5z" />
    <glyph glyph-name="V" unicode="V" horiz-adv-x="646" 
d="M387 0h-129l-237 696h136l169 -547l169 547h130z" />
    <glyph glyph-name="W" unicode="W" horiz-adv-x="885" 
d="M566 0l-124 432l-124 -432h-130l-159 696h134l98 -520l124 450h114l126 -449l99 519h132l-160 -696h-130z" />
    <glyph glyph-name="X" unicode="X" horiz-adv-x="643" 
d="M466 0l-155 250l-149 -250h-135l219 354l-213 342h147l152 -243l147 243h132l-214 -346l219 -350h-150z" />
    <glyph glyph-name="Y" unicode="Y" horiz-adv-x="624" 
d="M378 0h-133v261l-230 435h139l161 -325l160 325h134l-231 -435v-261z" />
    <glyph glyph-name="Z" unicode="Z" horiz-adv-x="597" 
d="M546 0h-495v103l334 490h-334v103h495v-103l-342 -490h342v-103z" />
    <glyph glyph-name="bracketleft" unicode="[" horiz-adv-x="464" 
d="M82 -174v870h336v-97h-204v-676h204v-97h-336z" />
    <glyph glyph-name="backslash" unicode="\" horiz-adv-x="486" 
d="M348 -173l-320 870l110 -1l319 -870z" />
    <glyph glyph-name="bracketright" unicode="]" horiz-adv-x="464" 
d="M47 -174v97h203v676h-203v97h335v-870h-335z" />
    <glyph glyph-name="asciicircum" unicode="^" horiz-adv-x="770" 
d="M561 174l-175 381l-177 -381h-128l240 522h128l240 -522h-128z" />
    <glyph glyph-name="underscore" unicode="_" horiz-adv-x="638" 
d="M73 -170v112h493v-112h-493z" />
    <glyph glyph-name="grave" unicode="`" horiz-adv-x="307" 
d="M247 398h-70q-51 72 -78 134.5t-40 163.5h140q11 -163 48 -298z" />
    <glyph glyph-name="a" unicode="a" horiz-adv-x="558" 
d="M245 79q55 0 99 46v97h-99q-35 0 -56 -17t-21 -52q0 -74 77 -74zM536 2q-58 -16 -105 1.5t-59 64.5q-67 -77 -171 -77q-72 0 -115.5 41t-43.5 113q0 73 49.5 114t134.5 41h116v50q0 43 -22 66.5t-63 23.5q-39 0 -63.5 -19t-43.5 -64l-95 50q57 125 210 125
q91 0 148.5 -46.5t57.5 -130.5v-223q0 -59 65 -41v-89z" />
    <glyph glyph-name="b" unicode="b" 
d="M325 -9q-72 0 -128 28v-19h-125v715h132v-278q62 95 156 95q83 0 132.5 -68t49.5 -199q0 -129 -59.5 -201.5t-157.5 -72.5zM304 88q54 0 79.5 42.5t25.5 133.5q0 89 -25.5 126t-71.5 37q-58 0 -108 -59v-249q50 -31 100 -31z" />
    <glyph glyph-name="c" unicode="c" horiz-adv-x="536" 
d="M284 -9q-113 0 -173 70t-60 203q0 130 61 199t172 69q82 0 138 -41.5t75 -114.5l-120 -36q-21 93 -92 93q-54 0 -78 -41.5t-24 -127.5q0 -91 24 -133t79 -42q38 0 59.5 19t31.5 67l120 -36q-45 -148 -213 -148z" />
    <glyph glyph-name="d" unicode="d" 
d="M288 434q-54 0 -79.5 -42t-25.5 -134q0 -89 25 -125.5t72 -36.5q61 0 107 59v248q-46 31 -99 31zM267 532q60 0 120 -29v213h132v-716h-128v86q-51 -95 -158 -95q-83 0 -133 68t-50 199q0 129 59.5 201.5t157.5 72.5z" />
    <glyph glyph-name="e" unicode="e" horiz-adv-x="560" 
d="M286 440q-50 0 -76 -30t-32 -100h205q-1 130 -97 130zM502 76q-72 -85 -205 -85q-114 0 -180 69.5t-66 201.5q0 131 64 200.5t171 69.5q103 0 163 -66t60 -184v-58h-330q6 -73 36.5 -106.5t87.5 -33.5q75 0 130 62z" />
    <glyph glyph-name="f" unicode="f" horiz-adv-x="423" 
d="M129 0v424h-100v98h100v40q0 97 83.5 137.5t190.5 4.5l-17 -87q-34 9 -62 11t-45.5 -16.5t-17.5 -57.5v-32h134v-98h-134v-424h-132z" />
    <glyph glyph-name="g" unicode="g" horiz-adv-x="590" 
d="M283 275q37 0 60.5 21.5t23.5 64.5t-23.5 63.5t-60.5 20.5t-61 -20.5t-24 -63.5t24 -64.5t61 -21.5zM561 -13q0 -81 -75 -130t-207 -49q-123 0 -180 35t-57 88q0 70 82 106q-59 30 -59 92q0 37 21.5 67.5t58.5 44.5q-65 47 -65 123q0 70 57.5 116t144.5 46q28 0 49 -4
h220v-85q-55 5 -98 18q32 -40 32 -91q0 -72 -57 -118.5t-146 -46.5q-39 0 -80 12q-36 -19 -36 -50q0 -40 60 -40h167q78 0 123 -34t45 -100zM293 -107q151 0 151 74q0 49 -65 49h-164q-9 0 -27 2q-26 -25 -26 -59q0 -32 27.5 -49t103.5 -17z" />
    <glyph glyph-name="h" unicode="h" 
d="M204 0h-132v715h132v-282q53 99 165 99q72 0 113.5 -47.5t41.5 -128.5v-356h-132v335q0 45 -18.5 68.5t-52.5 23.5q-67 0 -117 -81v-346z" />
    <glyph glyph-name="i" unicode="i" horiz-adv-x="284" 
d="M142 597q-36 0 -58 18.5t-22 50.5q0 33 22 52t58 19t58 -19t22 -53q0 -32 -22.5 -50t-57.5 -18zM76 0v522h132v-522h-132z" />
    <glyph glyph-name="j" unicode="j" horiz-adv-x="298" 
d="M154 597q-36 0 -58 18.5t-22 50.5q0 33 22 52t58 19t58.5 -19t22.5 -52q0 -32 -22.5 -50.5t-58.5 -18.5zM40 -182q-43 0 -102 19l15 93q47 -18 71 -18q63 0 63 83v527h135v-534q0 -83 -51.5 -126.5t-130.5 -43.5z" />
    <glyph glyph-name="k" unicode="k" horiz-adv-x="550" 
d="M381 0l-113 217l-68 -90v-127h-128v716h128v-447l189 253h131l-160 -212l163 -310h-142z" />
    <glyph glyph-name="l" unicode="l" horiz-adv-x="284" 
d="M76 0v716h132v-716h-132z" />
    <glyph glyph-name="m" unicode="m" horiz-adv-x="880" 
d="M204 354v-354h-132v522h129v-82q53 92 164 92q51 0 86.5 -27.5t49.5 -76.5q64 104 167 104q67 0 105.5 -45t38.5 -123v-364h-132v343q0 84 -60 84t-111 -72v-355h-133v343q0 84 -59 84q-61 0 -113 -73z" />
    <glyph glyph-name="n" unicode="n" 
d="M205 0h-132v522h129v-89q51 99 167 99q73 0 114.5 -47t41.5 -129v-356h-133v336q0 44 -18.5 67.5t-52.5 23.5q-67 0 -116 -81v-346z" />
    <glyph glyph-name="o" unicode="o" horiz-adv-x="573" 
d="M287 -9q-109 0 -172.5 68.5t-63.5 201.5q0 132 64.5 201.5t172.5 69.5q107 0 171 -69.5t64 -201.5q0 -133 -64 -201.5t-172 -68.5zM287 89q55 0 79 40t24 131t-24.5 132t-78.5 41q-55 0 -79.5 -41t-24.5 -131q0 -91 24.5 -131.5t79.5 -40.5z" />
    <glyph glyph-name="p" unicode="p" 
d="M304 88q54 0 79.5 42.5t25.5 133.5q0 89 -25.5 126t-71.5 37q-61 0 -108 -59v-249q50 -31 100 -31zM325 -9q-63 0 -121 28v-193h-132v696h129v-85q60 95 159 95q83 0 132.5 -68t49.5 -199q0 -129 -59.5 -201.5t-157.5 -72.5z" />
    <glyph glyph-name="q" unicode="q" 
d="M266 532q70 0 128 -29v19h125v-695h-132v258q-59 -94 -154 -94q-83 0 -132.5 67.5t-49.5 198.5q0 129 58.5 202t156.5 73zM289 434q-55 0 -80.5 -42t-25.5 -134q0 -162 97 -162q60 0 107 58v249q-46 31 -98 31z" />
    <glyph glyph-name="r" unicode="r" horiz-adv-x="412" 
d="M205 0h-132v522h129v-94q23 48 62.5 75t87.5 27q30 0 50 -9l-13 -115q-33 8 -55 7q-81 0 -129 -57v-356z" />
    <glyph glyph-name="s" unicode="s" horiz-adv-x="511" 
d="M260 -9q-123 0 -217 65l44 85q78 -55 174 -55q38 0 61.5 14t23.5 42t-19 40t-69 20q-102 15 -152 52.5t-50 111.5q0 75 56.5 120.5t140.5 45.5q107 0 196 -58l-44 -85q-76 47 -150 47q-34 0 -55 -13.5t-21 -40.5t19 -39.5t68 -21.5q107 -15 155 -53t48 -110
q0 -78 -59.5 -122.5t-149.5 -44.5z" />
    <glyph glyph-name="t" unicode="t" horiz-adv-x="438" 
d="M297 -9q-88 0 -134.5 46t-46.5 134v253h-91v98h91v144h132v-144h148v-98h-148v-241q0 -92 67 -92q29 0 72 16l15 -95q-48 -21 -105 -21z" />
    <glyph glyph-name="u" unicode="u" 
d="M388 522h132v-523h-129v90q-51 -99 -167 -99q-73 0 -115 47t-42 129v356h133v-336q0 -44 18.5 -67.5t52.5 -23.5q68 0 117 81v346z" />
    <glyph glyph-name="v" unicode="v" horiz-adv-x="526" 
d="M321 0h-117l-187 522h131l116 -360l119 360h127z" />
    <glyph glyph-name="w" unicode="w" horiz-adv-x="742" 
d="M460 0l-90 303l-88 -303h-120l-134 522h119l81 -356l92 316h102l95 -317l82 357h114l-133 -522h-120z" />
    <glyph glyph-name="x" unicode="x" horiz-adv-x="520" 
d="M362 0l-107 167l-100 -167h-133l169 267l-164 255h135l103 -161l96 161h132l-164 -259l169 -263h-136z" />
    <glyph glyph-name="y" unicode="y" horiz-adv-x="528" 
d="M129 -183q-36 0 -91 10l9 98q34 -10 65 -10q38 0 58.5 22.5t34.5 67.5l5 14l-190 503h131l118 -351l114 351h127l-204 -558q-29 -78 -71.5 -112.5t-105.5 -34.5z" />
    <glyph glyph-name="z" unicode="z" horiz-adv-x="493" 
d="M443 0h-393v99l248 325h-248v98h393v-98l-244 -325h244v-99z" />
    <glyph glyph-name="braceleft" unicode="{" horiz-adv-x="484" 
d="M428 -90v-93q-154 -2 -219 36.5t-65 134.5v166q0 43 -27 61.5t-97 19.5v73q70 2 97 19t27 58v145q0 100 65 138.5t219 36.5v-93q-93 2 -128 -20t-35 -83v-135q0 -53 -33 -76t-116 -25v-4q82 -6 115.5 -30.5t33.5 -73.5v-150q0 -63 35 -85t128 -20z" />
    <glyph glyph-name="bar" unicode="|" horiz-adv-x="517" 
d="M204 -174v870h108v-870h-108z" />
    <glyph glyph-name="braceright" unicode="}" horiz-adv-x="484" 
d="M56 -90q93 -2 127.5 20t34.5 85v150q0 48 34 72.5t116 31.5v4q-83 2 -116.5 25.5t-33.5 75.5v135q0 61 -34.5 83t-127.5 20v93q154 2 218.5 -36.5t64.5 -138.5v-145q0 -41 27.5 -58t96.5 -19v-73q-70 -1 -97 -19.5t-27 -61.5v-166q0 -96 -64.5 -134.5t-218.5 -36.5v93z
" />
    <glyph glyph-name="asciitilde" unicode="~" horiz-adv-x="770" 
d="M515 175q-52 0 -90 29.5t-70 81.5q-4 7 -14 22.5t-14.5 23t-13 19.5t-14.5 18.5t-14.5 13t-17 9.5t-17.5 3q-30 0 -43 -24t-13 -86v-101h-117v107q0 110 47 170t133 60q98 0 166 -109q4 -7 13.5 -23.5t14 -23.5t12.5 -19.5t13.5 -18.5t13 -13t14.5 -10t15 -3
q32 0 45.5 25.5t13.5 90.5v96h115v-100q0 -119 -46 -178.5t-132 -59.5z" />
    <glyph glyph-name="exclamdown" unicode="&#xa1;" horiz-adv-x="330" 
d="M165 702q36 0 58 -21.5t22 -56.5q0 -37 -21.5 -58t-58.5 -21q-39 0 -60.5 21t-21.5 58q0 35 22 56.5t60 21.5zM223 476l23 -476h-161l24 476h114z" />
    <glyph glyph-name="cent" unicode="&#xa2;" horiz-adv-x="580" 
d="M510 225q-38 -132 -175 -146v-123h-82v124q-92 13 -140.5 82t-48.5 189q0 115 49 183t140 81v125h82v-125q67 -9 112.5 -49t62.5 -105l-114 -35q-16 73 -67 88v-336q52 10 67 82zM190 351q0 -144 69 -170v331q-69 -24 -69 -161z" />
    <glyph glyph-name="sterling" unicode="&#xa3;" horiz-adv-x="691" 
d="M635 216q-6 -110 -59.5 -167.5t-147.5 -57.5q-49 0 -141 46q-27 11 -43.5 16.5t-37 4.5t-37.5 -13l-74 -53l-58 86l78 50q28 19 49 57t21 74q0 35 -12 68h-116v76h71q-24 52 -24 98q0 91 67 147.5t182 56.5q127 0 187 -51.5t69 -160.5l-132 -9q-8 61 -34 87t-91 26
q-57 0 -85.5 -27t-28.5 -71q0 -38 32 -96h150v-76h-109q8 -23 8 -61q0 -66 -102 -119l14 -25q47 28 108 10q10 -3 28.5 -10.5t32.5 -11.5t28 -4q40 0 55 26.5t19 93.5z" />
    <glyph glyph-name="currency" unicode="&#xa4;" horiz-adv-x="714" 
d="M358 178q55 0 79 40t24 131q0 90 -24.5 131t-78.5 41t-79 -41t-25 -130q0 -92 25 -132t79 -40zM358 79q-85 0 -144 44l-88 -94l-61 58l93 101q-36 64 -36 162q0 94 35 159l-93 101l62 59l86 -94q60 45 147 45t145 -45l84 89l61 -58l-90 -97q36 -64 36 -159
q0 -92 -34 -158l88 -101l-62 -58l-84 90q-59 -44 -145 -44z" />
    <glyph glyph-name="brokenbar" unicode="&#xa6;" horiz-adv-x="555" 
d="M223 349v347h107v-347h-107zM223 -174v348h107v-348h-107z" />
    <glyph glyph-name="section" unicode="&#xa7;" horiz-adv-x="750" 
d="M397 182q47 2 76.5 19t29.5 50q0 32 -27 48.5t-82 28.5q-26 6 -37 9q-47 -1 -76.5 -17.5t-29.5 -50.5q0 -32 27 -48.5t81 -29.5q20 -3 38 -9zM389 -180q-72 0 -140.5 22t-113.5 59l41 96q100 -74 217 -74q51 0 83 16t32 51q0 20 -10 34.5t-33 25t-45.5 17t-62.5 15.5
q-126 26 -182.5 63t-56.5 107q0 89 113 124q-113 53 -113 156q0 82 70 125t177 43q146 0 254 -82l-46 -91q-103 70 -212 70q-115 0 -115 -70q0 -37 40 -55t140 -40q108 -24 158.5 -60t50.5 -106q0 -90 -99 -129q99 -49 99 -148q0 -81 -68 -125t-178 -44z" />
    <glyph glyph-name="dieresis" unicode="&#xa8;" horiz-adv-x="535" 
d="M362 597q-30 0 -48.5 18.5t-18.5 50.5q0 33 18.5 52t48.5 19t49 -19.5t19 -51.5t-19.5 -50.5t-48.5 -18.5zM170 597q-30 0 -48.5 18.5t-18.5 50.5q0 33 18.5 52t48.5 19t48.5 -19t18.5 -52q0 -32 -19 -50.5t-48 -18.5z" />
    <glyph glyph-name="copyright" unicode="&#xa9;" horiz-adv-x="821" 
d="M411 -96q-162 0 -258.5 101.5t-96.5 325.5q0 109 27 189.5t76.5 127.5t112 69.5t140.5 22.5q161 0 257 -100t96 -316q0 -219 -96 -319.5t-258 -100.5zM411 -39q142 0 217.5 85.5t75.5 277.5q0 359 -293 359q-294 0 -294 -352q0 -197 75.5 -283.5t218.5 -86.5zM419 88
q-188 0 -188 241q0 227 188 227q79 0 124.5 -43.5t49.5 -115.5l-88 -13q-4 50 -24.5 74.5t-62.5 24.5q-47 0 -70.5 -35.5t-23.5 -118.5q0 -90 23.5 -128.5t71.5 -38.5q79 0 86 93l88 -13q-4 -70 -50 -112t-124 -42z" />
    <glyph glyph-name="ordfeminine" unicode="&#xaa;" horiz-adv-x="565" 
d="M234 335q55 0 95 37v76h-95q-29 0 -43 -12.5t-14 -45.5q0 -55 57 -55zM207 262q-57 0 -97.5 31t-40.5 90q0 61 40.5 94t111.5 33h108v40q0 76 -70 76q-65 0 -93 -65l-87 43q22 46 68.5 73.5t111.5 27.5q182 0 182 -151v-150q0 -38 17 -48t58 -4v-82q-116 -23 -141 56
l-1 6q-82 -70 -167 -70z" />
    <glyph glyph-name="guillemotleft" unicode="&#xab;" horiz-adv-x="789" 
d="M380 50l-297 188v133l297 189v-120l-211 -135l211 -135v-120zM705 50l-296 188v133l296 189v-120l-211 -135l211 -135v-120z" />
    <glyph glyph-name="logicalnot" unicode="&#xac;" horiz-adv-x="714" 
d="M526 0v252h-449v110h559v-362h-110z" />
    <glyph glyph-name="registered" unicode="&#xae;" horiz-adv-x="747" 
d="M374 129q-137 0 -213 78t-76 233q0 153 76.5 231t213.5 78q135 0 211 -78t76 -231q0 -155 -76 -233t-212 -78zM374 177q237 0 237 264q0 130 -62 195t-175 65q-114 0 -175.5 -65.5t-61.5 -195.5q0 -263 237 -263zM336 446h55q11 0 18 2.5t13 13t6 30.5q0 52 -37 52h-55
v-98zM336 280h-81v321h144q49 0 81 -26t32 -83q0 -73 -58 -91l73 -121h-90l-69 113h-32v-113z" />
    <glyph glyph-name="macron" unicode="&#xaf;" horiz-adv-x="535" 
d="M97 629v100h339v-100h-339z" />
    <glyph glyph-name="degree" unicode="&#xb0;" horiz-adv-x="475" 
d="M237 288q-85 0 -130.5 48t-45.5 158q0 207 176 207q177 0 177 -206q0 -111 -46 -159t-131 -48zM237 378q38 0 54.5 24.5t16.5 91.5q0 64 -17 90.5t-54 26.5t-54 -26.5t-17 -91.5q0 -66 16.5 -90.5t54.5 -24.5z" />
    <glyph glyph-name="plusminus" unicode="&#xb1;" horiz-adv-x="626" 
d="M259 122v217h-192v106h192v218h107v-218h193v-106h-193v-217h-107zM67 4v106h492v-106h-492z" />
    <glyph glyph-name="acute" unicode="&#xb4;" horiz-adv-x="535" 
d="M168 593q65 99 93 170h159q-90 -108 -163 -170h-89z" />
    <glyph glyph-name="paragraph" unicode="&#xb6;" horiz-adv-x="750" 
d="M499 296h-84v-470h-132v470q-82 0 -135 50.5t-53 146.5q0 95 52 149t130 54h355v-870h-133v470z" />
    <glyph glyph-name="periodcentered" unicode="&#xb7;" horiz-adv-x="316" 
d="M159 250q-39 0 -62 23.5t-23 63.5q0 39 23.5 62t61.5 23q37 0 60 -23t23 -62q0 -40 -23 -63.5t-60 -23.5z" />
    <glyph glyph-name="cedilla" unicode="&#xb8;" horiz-adv-x="535" 
d="M270 -193q-102 0 -148 67l64 51q27 -40 79 -40q48 0 48 32q0 18 -19 26t-66 8v67h80v-31q50 -4 81.5 -26.5t31.5 -59.5q0 -47 -44 -70.5t-107 -23.5z" />
    <glyph glyph-name="ordmasculine" unicode="&#xba;" horiz-adv-x="572" 
d="M287 262q-88 0 -139.5 54.5t-51.5 170.5q0 110 52 164t139 54q86 0 138 -54t52 -164q0 -116 -51.5 -170.5t-138.5 -54.5zM287 345q41 0 59 31.5t18 110.5q0 72 -18 103.5t-59 31.5q-43 0 -61 -31t-18 -102q0 -81 18 -112.5t61 -31.5z" />
    <glyph glyph-name="guillemotright" unicode="&#xbb;" horiz-adv-x="789" 
d="M409 50v120l211 135l-211 135v120l296 -189v-133zM83 50v120l213 135l-213 135v120l297 -189v-133z" />
    <glyph glyph-name="onequarter" unicode="&#xbc;" horiz-adv-x="971" 
d="M288 0l320 696h110l-319 -696h-111z" />
    <glyph glyph-name="onehalf" unicode="&#xbd;" horiz-adv-x="945" 
d="M261 0l320 696h111l-319 -696h-112z" />
    <glyph glyph-name="threequarters" unicode="&#xbe;" horiz-adv-x="967" 
d="M287 0l320 696h110l-319 -696h-111z" />
    <glyph glyph-name="questiondown" unicode="&#xbf;" horiz-adv-x="584" 
d="M341 705q39 0 61 -21t22 -57t-22 -57t-61 -21q-37 0 -58.5 21.5t-21.5 56.5q0 36 22 57t58 21zM287 484h107l3 -152q-219 -24 -219 -135q0 -46 32 -73t90 -27q109 0 187 93l62 -87q-96 -109 -252 -109q-109 0 -180.5 56t-71.5 156q0 171 239 216z" />
    <glyph glyph-name="Agrave" unicode="&#xc0;" horiz-adv-x="647" 
d="M326 767q-74 63 -163 170h156q25 -59 95 -170h-88zM407 270l-89 287l-88 -287h177zM491 0l-52 168h-241l-52 -168h-124l238 696h129l237 -696h-135z" />
    <glyph glyph-name="Aacute" unicode="&#xc1;" horiz-adv-x="647" 
d="M226 767q65 99 93 170h159q-90 -108 -163 -170h-89zM407 270l-89 287l-88 -287h177zM491 0l-52 168h-241l-52 -168h-124l238 696h129l237 -696h-135z" />
    <glyph glyph-name="Acircumflex" unicode="&#xc2;" horiz-adv-x="647" 
d="M171 764l-45 58q81 63 145 134h103q65 -72 146 -134l-43 -57q-90 42 -155 94q-70 -56 -151 -95zM407 270l-89 287l-88 -287h177zM491 0l-52 168h-241l-52 -168h-124l238 696h129l237 -696h-135z" />
    <glyph glyph-name="Atilde" unicode="&#xc3;" horiz-adv-x="647" 
d="M395 774q-53 0 -88 47q-2 2 -6.5 8t-6.5 8.5l-6 7.5t-6 7t-6 5.5t-7 5t-6.5 2.5t-7.5 1q-34 0 -33 -71v-11h-91v13q0 70 33 114.5t88 44.5q51 0 89 -46q3 -4 10.5 -13.5t10.5 -13.5t9 -10t11 -8t10 -2q35 0 34 72v12h89v-13q0 -72 -32 -116t-88 -44zM407 270l-89 287
l-88 -287h177zM491 0l-52 168h-241l-52 -168h-124l238 696h129l237 -696h-135z" />
    <glyph glyph-name="Adieresis" unicode="&#xc4;" horiz-adv-x="647" 
d="M420 770q-30 0 -48.5 18.5t-18.5 50.5q0 33 18.5 52.5t48.5 19.5t49 -19.5t19 -52.5q0 -31 -19.5 -50t-48.5 -19zM228 770q-30 0 -48.5 18.5t-18.5 50.5q0 33 18.5 52.5t48.5 19.5t48.5 -19.5t18.5 -52.5q0 -32 -19 -50.5t-48 -18.5zM407 270l-89 287l-88 -287h177z
M491 0l-52 168h-241l-52 -168h-124l238 696h129l237 -696h-135z" />
    <glyph glyph-name="Aring" unicode="&#xc5;" horiz-adv-x="647" 
d="M323 759q-70 0 -112 37t-42 105q0 67 42 105t112 38q71 0 113 -38t42 -105q0 -68 -42 -105t-113 -37zM323 826q62 0 62 75q0 35 -16 55.5t-46 20.5t-46 -20.5t-16 -55.5q0 -75 62 -75zM407 270l-89 287l-88 -287h177zM491 0l-52 168h-241l-52 -168h-124l238 696h129
l237 -696h-135z" />
    <glyph glyph-name="AE" unicode="&#xc6;" horiz-adv-x="898" 
d="M346 593l-106 -309h185v309h-79zM425 181h-219l-61 -181h-123l247 696h563v-103h-275v-169h236v-103h-236v-218h275v-103h-407v181z" />
    <glyph glyph-name="Ccedilla" unicode="&#xc7;" horiz-adv-x="651" 
d="M345 -193q-102 0 -149 67l64 51q27 -40 79 -40q48 0 48 32q0 18 -19 26t-66 8v42q-248 23 -248 364q0 171 72.5 259.5t212.5 88.5q118 0 186 -60t77 -165l-128 -24q-9 77 -39.5 112t-96.5 35q-76 0 -114 -58.5t-38 -187.5q0 -140 37.5 -201t114.5 -61q67 0 98 34t38 108
l128 -24q-7 -92 -64 -150.5t-156 -69.5v-6q50 -4 81.5 -26.5t31.5 -59.5q0 -47 -44 -70.5t-106 -23.5z" />
    <glyph glyph-name="Egrave" unicode="&#xc8;" horiz-adv-x="580" 
d="M295 767q-71 60 -164 170h157q20 -48 94 -170h-87zM77 0v696h450v-103h-318v-169h279v-103h-279v-218h318v-103h-450z" />
    <glyph glyph-name="Eacute" unicode="&#xc9;" horiz-adv-x="580" 
d="M200 767q62 91 94 170h158q-92 -111 -162 -170h-90zM77 0v696h450v-103h-318v-169h279v-103h-279v-218h318v-103h-450z" />
    <glyph glyph-name="Ecircumflex" unicode="&#xca;" horiz-adv-x="580" 
d="M146 764l-44 58q80 63 145 134h103q60 -69 146 -134l-44 -57q-91 42 -154 94q-68 -55 -152 -95zM77 0v696h450v-103h-318v-169h279v-103h-279v-218h318v-103h-450z" />
    <glyph glyph-name="Edieresis" unicode="&#xcb;" horiz-adv-x="580" 
d="M396 770q-30 0 -48.5 18.5t-18.5 50.5q0 33 18.5 52.5t48.5 19.5t49 -19.5t19 -52.5q0 -32 -19 -50.5t-49 -18.5zM204 770q-30 0 -48.5 18.5t-18.5 50.5q0 33 18.5 52.5t48.5 19.5t48.5 -19.5t18.5 -52.5q0 -32 -18.5 -50.5t-48.5 -18.5zM77 0v696h450v-103h-318v-169
h279v-103h-279v-218h318v-103h-450z" />
    <glyph glyph-name="Igrave" unicode="&#xcc;" horiz-adv-x="496" 
d="M241 767q-71 60 -164 170h157q20 -48 94 -170h-87zM49 0v103h133v490h-133v103h398v-103h-133v-490h133v-103h-398z" />
    <glyph glyph-name="Iacute" unicode="&#xcd;" horiz-adv-x="496" 
d="M158 767q65 99 93 170h159q-90 -108 -163 -170h-89zM49 0v103h133v490h-133v103h398v-103h-133v-490h133v-103h-398z" />
    <glyph glyph-name="Icircumflex" unicode="&#xce;" horiz-adv-x="496" 
d="M95 764l-45 58q76 59 145 134h103q60 -69 146 -134l-44 -57q-87 41 -154 94q-68 -54 -151 -95zM49 0v103h133v490h-133v103h398v-103h-133v-490h133v-103h-398z" />
    <glyph glyph-name="Idieresis" unicode="&#xcf;" horiz-adv-x="496" 
d="M345 770q-30 0 -49 18.5t-19 50.5q0 33 19 52.5t49 19.5t49 -19.5t19 -52.5q0 -31 -19.5 -50t-48.5 -19zM152 770q-30 0 -48.5 18.5t-18.5 50.5q0 33 18.5 52.5t48.5 19.5t49 -19.5t19 -52.5q0 -32 -19 -50.5t-49 -18.5zM49 0v103h133v490h-133v103h398v-103h-133v-490
h133v-103h-398z" />
    <glyph glyph-name="Eth" unicode="&#xd0;" horiz-adv-x="681" 
d="M338 0h-261v337h-80v89h80v270h262q131 0 209.5 -89t78.5 -256q0 -172 -78.5 -261.5t-210.5 -89.5zM209 103h112q87 0 130 58t43 190q0 127 -43 184.5t-130 57.5h-112v-167h137v-89h-137v-234z" />
    <glyph glyph-name="Ntilde" unicode="&#xd1;" horiz-adv-x="691" 
d="M430 774q-52 0 -89 47q-2 3 -8 11t-8.5 11t-7.5 8.5t-8.5 8t-8.5 4.5t-10 2q-35 0 -34 -71v-11h-90v13q0 70 32.5 114.5t88.5 44.5q51 0 89 -46q2 -3 7 -10t7.5 -10t7 -8.5t7.5 -8t7 -5.5t7.5 -4t7.5 -1q34 0 33 72v12h90v-13q0 -72 -32.5 -116t-87.5 -44zM472 0
l-280 516v-516h-115v696h145l277 -502v502h115v-696h-142z" />
    <glyph glyph-name="Ograve" unicode="&#xd2;" horiz-adv-x="685" 
d="M340 767q-67 57 -163 170h156q25 -59 95 -170h-88zM342 -9q-138 0 -213 90.5t-75 274.5q0 173 76 261t213 88q138 0 213 -88t75 -260q0 -185 -75 -275.5t-214 -90.5zM342 95q80 0 118 59.5t38 202.5q0 132 -38.5 189t-117.5 57q-80 0 -118 -57.5t-38 -190.5
q0 -142 38 -201t118 -59z" />
    <glyph glyph-name="Oacute" unicode="&#xd3;" horiz-adv-x="685" 
d="M254 767q62 91 94 170h158q-93 -112 -163 -170h-89zM342 -9q-138 0 -213 90.5t-75 274.5q0 173 76 261t213 88q138 0 213 -88t75 -260q0 -185 -75 -275.5t-214 -90.5zM342 95q80 0 118 59.5t38 202.5q0 132 -38.5 189t-117.5 57q-80 0 -118 -57.5t-38 -190.5
q0 -142 38 -201t118 -59z" />
    <glyph glyph-name="Ocircumflex" unicode="&#xd4;" horiz-adv-x="685" 
d="M190 764l-45 58q80 62 146 134h102q63 -70 147 -134l-44 -57q-90 42 -155 94q-66 -54 -151 -95zM342 -9q-138 0 -213 90.5t-75 274.5q0 173 76 261t213 88q138 0 213 -88t75 -260q0 -185 -75 -275.5t-214 -90.5zM342 95q80 0 118 59.5t38 202.5q0 132 -38.5 189
t-117.5 57q-80 0 -118 -57.5t-38 -190.5q0 -142 38 -201t118 -59z" />
    <glyph glyph-name="Otilde" unicode="&#xd5;" horiz-adv-x="685" 
d="M414 774q-54 0 -89 47q-2 2 -8 10.5t-8.5 11.5t-8 8.5t-9 8t-8.5 4.5t-10 2q-34 0 -33 -71v-11h-91v13q0 70 33 114.5t88 44.5q32 0 51 -11.5t39 -34.5q2 -3 10 -13.5t10.5 -14t8.5 -9.5t11 -8t11 -2q34 0 33 72v12h90v-13q0 -72 -32.5 -116t-87.5 -44zM342 -9
q-138 0 -213 90.5t-75 274.5q0 173 76 261t213 88q138 0 213 -88t75 -260q0 -185 -75 -275.5t-214 -90.5zM342 95q80 0 118 59.5t38 202.5q0 132 -38.5 189t-117.5 57q-80 0 -118 -57.5t-38 -190.5q0 -142 38 -201t118 -59z" />
    <glyph glyph-name="Odieresis" unicode="&#xd6;" horiz-adv-x="685" 
d="M438 770q-30 0 -48.5 18.5t-18.5 50.5q0 33 18.5 52.5t48.5 19.5t49 -19.5t19 -52.5q0 -32 -19 -50.5t-49 -18.5zM246 770q-30 0 -48.5 18.5t-18.5 50.5q0 33 18.5 52.5t48.5 19.5t48.5 -19.5t18.5 -52.5q0 -32 -18.5 -50.5t-48.5 -18.5zM342 -9q-138 0 -213 90.5
t-75 274.5q0 173 76 261t213 88q138 0 213 -88t75 -260q0 -185 -75 -275.5t-214 -90.5zM342 95q80 0 118 59.5t38 202.5q0 132 -38.5 189t-117.5 57q-80 0 -118 -57.5t-38 -190.5q0 -142 38 -201t118 -59z" />
    <glyph glyph-name="multiply" unicode="&#xd7;" horiz-adv-x="626" 
d="M74 120l173 185l-173 186l69 66l170 -181l171 181l68 -66l-174 -186l174 -185l-69 -68l-170 183l-171 -182z" />
    <glyph glyph-name="Oslash" unicode="&#xd8;" horiz-adv-x="685" 
d="M186 355q0 -143 39 -203l164 445q-21 6 -47 6q-80 0 -118 -57.5t-38 -190.5zM342 95q81 0 118.5 59t37.5 203q0 139 -43 195l-166 -450q22 -7 53 -7zM342 -9q-44 0 -83 9l-32 -87h-95l45 123q-123 84 -123 320q0 173 76 261t213 88q43 0 77 -7l31 86h96l-44 -120
q128 -81 128 -307q0 -185 -75 -275.5t-214 -90.5z" />
    <glyph glyph-name="Ugrave" unicode="&#xd9;" horiz-adv-x="677" 
d="M337 767q-67 57 -163 170h156q25 -59 95 -170h-88zM338 -9q-129 0 -197.5 73.5t-68.5 194.5v437h132v-429q0 -167 135 -167t135 167v429h132v-437q0 -119 -71 -193.5t-197 -74.5z" />
    <glyph glyph-name="Uacute" unicode="&#xda;" horiz-adv-x="677" 
d="M243 767q62 93 93 170h159q-90 -108 -163 -170h-89zM338 -9q-129 0 -197.5 73.5t-68.5 194.5v437h132v-429q0 -167 135 -167t135 167v429h132v-437q0 -119 -71 -193.5t-197 -74.5z" />
    <glyph glyph-name="Ucircumflex" unicode="&#xdb;" horiz-adv-x="684" 
d="M186 764l-45 58q80 62 146 134h102q63 -70 147 -134l-44 -57q-90 42 -155 94q-66 -54 -151 -95zM338 -9q-129 0 -197.5 73.5t-68.5 194.5v437h132v-429q0 -167 135 -167t135 167v429h132v-437q0 -119 -71 -193.5t-197 -74.5z" />
    <glyph glyph-name="Udieresis" unicode="&#xdc;" horiz-adv-x="677" 
d="M438 770q-30 0 -48.5 18.5t-18.5 50.5q0 33 18.5 52.5t48.5 19.5t49 -19.5t19 -52.5q0 -32 -19 -50.5t-49 -18.5zM246 770q-30 0 -48.5 18.5t-18.5 50.5q0 33 18.5 52.5t48.5 19.5t48.5 -19.5t18.5 -52.5q0 -32 -18.5 -50.5t-48.5 -18.5zM338 -9q-129 0 -197.5 73.5
t-68.5 194.5v437h132v-429q0 -167 135 -167t135 167v429h132v-437q0 -119 -71 -193.5t-197 -74.5z" />
    <glyph glyph-name="Yacute" unicode="&#xdd;" horiz-adv-x="624" 
d="M227 767q65 99 93 170h159q-90 -108 -163 -170h-89zM378 0h-133v261l-230 435h139l161 -325l160 325h134l-231 -435v-261z" />
    <glyph glyph-name="Thorn" unicode="&#xde;" horiz-adv-x="609" 
d="M77 0v696h132v-112h102q123 0 193 -58.5t70 -169.5q0 -113 -69.5 -171.5t-192.5 -58.5h-103v-126h-132zM209 482v-255h97q135 0 135 129q0 126 -135 126h-97z" />
    <glyph glyph-name="germandbls" unicode="&#xdf;" horiz-adv-x="709" 
d="M462 -5q-52 0 -105.5 18.5t-90.5 51.5l49 77q75 -61 151 -61q77 0 77 57q0 32 -25.5 46t-85.5 27q-73 16 -107.5 50t-34.5 94q0 64 44.5 106.5t114.5 49.5q-12 109 -122 109q-58 0 -90.5 -34t-32.5 -102v-484h-132v496q0 108 72 164.5t189 56.5q106 0 174.5 -62.5
t68.5 -164.5v-50q-90 1 -128 -14t-38 -53q0 -31 23.5 -44t80.5 -25q81 -18 115.5 -54t34.5 -100q0 -73 -54.5 -114t-147.5 -41z" />
    <glyph glyph-name="agrave" unicode="&#xe0;" horiz-adv-x="559" 
d="M262 593q-74 63 -163 170h156q23 -54 95 -170h-88zM245 79q55 0 99 46v97h-99q-35 0 -56 -17t-21 -52q0 -74 77 -74zM536 2q-58 -16 -105 1.5t-59 64.5q-67 -77 -171 -77q-72 0 -115.5 41t-43.5 113q0 73 49.5 114t134.5 41h116v50q0 43 -22 66.5t-63 23.5
q-39 0 -63.5 -19t-43.5 -64l-95 50q57 125 210 125q91 0 148.5 -46.5t57.5 -130.5v-223q0 -59 65 -41v-89z" />
    <glyph glyph-name="aacute" unicode="&#xe1;" horiz-adv-x="559" 
d="M178 593q65 99 93 170h159q-90 -108 -163 -170h-89zM245 79q55 0 99 46v97h-99q-35 0 -56 -17t-21 -52q0 -74 77 -74zM536 2q-58 -16 -105 1.5t-59 64.5q-67 -77 -171 -77q-72 0 -115.5 41t-43.5 113q0 73 49.5 114t134.5 41h116v50q0 43 -22 66.5t-63 23.5
q-39 0 -63.5 -19t-43.5 -64l-95 50q57 125 210 125q91 0 148.5 -46.5t57.5 -130.5v-223q0 -59 65 -41v-89z" />
    <glyph glyph-name="acircumflex" unicode="&#xe2;" horiz-adv-x="559" 
d="M120 590l-45 58q81 63 146 135h102q62 -70 147 -135l-44 -57q-90 42 -155 94q-66 -54 -151 -95zM245 79q55 0 99 46v97h-99q-35 0 -56 -17t-21 -52q0 -74 77 -74zM536 2q-58 -16 -105 1.5t-59 64.5q-67 -77 -171 -77q-72 0 -115.5 41t-43.5 113q0 73 49.5 114t134.5 41
h116v50q0 43 -22 66.5t-63 23.5q-39 0 -63.5 -19t-43.5 -64l-95 50q57 125 210 125q91 0 148.5 -46.5t57.5 -130.5v-223q0 -59 65 -41v-89z" />
    <glyph glyph-name="atilde" unicode="&#xe3;" horiz-adv-x="559" 
d="M343 601q-53 0 -88 46q-26 36 -38 42q-7 3 -14 3q-34 0 -33 -71v-11h-91v13q0 70 33 115t88 45q32 0 51 -12t39 -35q2 -3 9.5 -13.5t10.5 -14t9 -9.5t11 -8t10 -2q35 0 34 72v12h89v-13q0 -71 -32 -115t-88 -44zM245 79q55 0 99 46v97h-99q-35 0 -56 -17t-21 -52
q0 -74 77 -74zM536 2q-58 -16 -105 1.5t-59 64.5q-67 -77 -171 -77q-72 0 -115.5 41t-43.5 113q0 73 49.5 114t134.5 41h116v50q0 43 -22 66.5t-63 23.5q-39 0 -63.5 -19t-43.5 -64l-95 50q57 125 210 125q91 0 148.5 -46.5t57.5 -130.5v-223q0 -59 65 -41v-89z" />
    <glyph glyph-name="adieresis" unicode="&#xe4;" horiz-adv-x="559" 
d="M370 597q-30 0 -48.5 18.5t-18.5 50.5q0 33 18.5 52t48.5 19t49 -19t19 -52q0 -32 -19 -50.5t-49 -18.5zM178 597q-30 0 -48.5 18.5t-18.5 50.5q0 33 18.5 52t48.5 19t48.5 -19t18.5 -52q0 -32 -19 -50.5t-48 -18.5zM245 79q55 0 99 46v97h-99q-35 0 -56 -17t-21 -52
q0 -74 77 -74zM536 2q-58 -16 -105 1.5t-59 64.5q-67 -77 -171 -77q-72 0 -115.5 41t-43.5 113q0 73 49.5 114t134.5 41h116v50q0 43 -22 66.5t-63 23.5q-39 0 -63.5 -19t-43.5 -64l-95 50q57 125 210 125q91 0 148.5 -46.5t57.5 -130.5v-223q0 -59 65 -41v-89z" />
    <glyph glyph-name="aring" unicode="&#xe5;" horiz-adv-x="559" 
d="M257 585q-71 0 -112.5 37.5t-41.5 105.5q0 67 42 104.5t112 37.5q71 0 113 -37.5t42 -104.5q0 -68 -42 -105.5t-113 -37.5zM257 652q62 0 62 76q0 35 -16 55t-46 20t-46 -20t-16 -55q0 -76 62 -76zM245 79q55 0 99 46v97h-99q-35 0 -56 -17t-21 -52q0 -74 77 -74zM536 2
q-58 -16 -105 1.5t-59 64.5q-67 -77 -171 -77q-72 0 -115.5 41t-43.5 113q0 73 49.5 114t134.5 41h116v50q0 43 -22 66.5t-63 23.5q-39 0 -63.5 -19t-43.5 -64l-95 50q57 125 210 125q91 0 148.5 -46.5t57.5 -130.5v-223q0 -59 65 -41v-89z" />
    <glyph glyph-name="ae" unicode="&#xe6;" horiz-adv-x="829" 
d="M565 440q-46 0 -70 -30t-29 -100h186q-1 130 -87 130zM771 76q-70 -85 -195 -85q-117 0 -177 82q-91 -82 -192 -82q-75 0 -120 41t-45 112q0 74 49.5 115t135.5 41h115v50q0 43 -22 66.5t-63 23.5q-40 0 -64 -18.5t-44 -63.5l-93 50q54 124 209 124q100 0 154 -56
q58 56 146 56q98 0 155.5 -66t57.5 -184v-58h-312q6 -73 34.5 -106.5t81.5 -33.5q67 0 120 62zM241 79q32 0 64 21t56 51q-11 39 -13 71h-103q-76 0 -76 -70q0 -73 72 -73z" />
    <glyph glyph-name="ccedilla" unicode="&#xe7;" horiz-adv-x="535" 
d="M280 -193q-101 0 -148 67l64 51q27 -40 79 -40q48 0 48 32q0 18 -19 26t-66 8v43q-91 14 -139 82.5t-48 187.5q0 130 61 199t172 69q82 0 138 -41.5t75 -114.5l-120 -36q-21 93 -92 93q-54 0 -78 -41.5t-24 -127.5q0 -91 24 -133t79 -42q38 0 59.5 19t31.5 67l120 -36
q-41 -134 -179 -147v-5q50 -4 81.5 -26.5t31.5 -59.5q0 -47 -44 -70.5t-107 -23.5z" />
    <glyph glyph-name="egrave" unicode="&#xe8;" horiz-adv-x="560" 
d="M286 593q-71 60 -164 170h156q25 -59 95 -170h-87zM286 440q-50 0 -76 -30t-32 -100h205q-1 130 -97 130zM502 76q-72 -85 -205 -85q-114 0 -180 69.5t-66 201.5q0 131 64 200.5t171 69.5q103 0 163 -66t60 -184v-58h-330q6 -73 36.5 -106.5t87.5 -33.5q75 0 130 62z" />
    <glyph glyph-name="eacute" unicode="&#xe9;" horiz-adv-x="560" 
d="M196 593q62 91 94 170h158q-92 -111 -162 -170h-90zM286 440q-50 0 -76 -30t-32 -100h205q-1 130 -97 130zM502 76q-72 -85 -205 -85q-114 0 -180 69.5t-66 201.5q0 131 64 200.5t171 69.5q103 0 163 -66t60 -184v-58h-330q6 -73 36.5 -106.5t87.5 -33.5q75 0 130 62z
" />
    <glyph glyph-name="ecircumflex" unicode="&#xea;" horiz-adv-x="560" 
d="M131 590l-45 58q81 63 146 135h102q62 -70 147 -135l-44 -57q-91 42 -154 94q-68 -55 -152 -95zM286 440q-50 0 -76 -30t-32 -100h205q-1 130 -97 130zM502 76q-72 -85 -205 -85q-114 0 -180 69.5t-66 201.5q0 131 64 200.5t171 69.5q103 0 163 -66t60 -184v-58h-330
q6 -73 36.5 -106.5t87.5 -33.5q75 0 130 62z" />
    <glyph glyph-name="edieresis" unicode="&#xeb;" horiz-adv-x="560" 
d="M380 597q-30 0 -48.5 18.5t-18.5 50.5q0 33 18.5 52t48.5 19t49 -19t19 -52q0 -32 -19 -50.5t-49 -18.5zM188 597q-30 0 -48.5 18.5t-18.5 50.5q0 33 18.5 52t48.5 19t48.5 -19t18.5 -52q0 -32 -18.5 -50.5t-48.5 -18.5zM286 440q-50 0 -76 -30t-32 -100h205
q-1 130 -97 130zM502 76q-72 -85 -205 -85q-114 0 -180 69.5t-66 201.5q0 131 64 200.5t171 69.5q103 0 163 -66t60 -184v-58h-330q6 -73 36.5 -106.5t87.5 -33.5q75 0 130 62z" />
    <glyph glyph-name="igrave" unicode="&#xec;" horiz-adv-x="288" 
d="M152 593q-67 57 -163 170h156q25 -59 95 -170h-88zM76 0v522h132v-522h-132z" />
    <glyph glyph-name="iacute" unicode="&#xed;" horiz-adv-x="288" 
d="M52 593q65 99 93 170h159q-90 -108 -163 -170h-89zM76 0v522h132v-522h-132z" />
    <glyph glyph-name="icircumflex" unicode="&#xee;" horiz-adv-x="288" 
d="M-10 590l-45 58q83 64 145 135h103q60 -69 146 -135l-43 -57q-90 42 -155 94q-66 -54 -151 -95zM76 0v522h132v-522h-132z" />
    <glyph glyph-name="idieresis" unicode="&#xef;" horiz-adv-x="288" 
d="M241 597q-31 0 -49 18.5t-18 50.5q0 33 18.5 52t48.5 19t49 -19.5t19 -51.5t-19.5 -50.5t-48.5 -18.5zM49 597q-31 0 -49 18.5t-18 50.5q0 33 18.5 52t48.5 19t48.5 -19t18.5 -52q0 -32 -19 -50.5t-48 -18.5zM76 0v522h132v-522h-132z" />
    <glyph glyph-name="eth" unicode="&#xf0;" horiz-adv-x="596" 
d="M296 -9q-109 0 -172 58.5t-63 177.5q0 101 52.5 157.5t135.5 56.5q101 0 149 -64v11q0 92 -74 155l-138 -67v75l73 35q-52 27 -124 47l74 88q116 -36 173 -74l124 60v-75l-68 -33q90 -98 91 -298v-36q0 -274 -233 -274zM297 89q52 0 75.5 31t23.5 102q0 67 -23.5 94
t-75.5 27q-54 0 -78 -27t-24 -92q0 -73 24.5 -104t77.5 -31z" />
    <glyph glyph-name="ntilde" unicode="&#xf1;" 
d="M383 601q-53 0 -88 46q-2 3 -7.5 9.5t-7.5 9.5t-6.5 8t-7.5 7.5t-7 5.5t-8 4t-8 1q-35 0 -34 -71v-11h-90v13q0 70 33 115t88 45q32 0 51 -12t38 -35q3 -4 10.5 -13.5t10.5 -13.5t9 -10t11 -8t10 -2q35 0 34 72v12h89v-13q0 -71 -32.5 -115t-87.5 -44zM205 0h-132v522
h129v-89q51 99 167 99q73 0 114.5 -47t41.5 -129v-356h-133v336q0 44 -18.5 67.5t-52.5 23.5q-67 0 -116 -81v-346z" />
    <glyph glyph-name="ograve" unicode="&#xf2;" horiz-adv-x="573" 
d="M290 593q-71 60 -164 170h157q24 -59 94 -170h-87zM287 -9q-109 0 -172.5 68.5t-63.5 201.5q0 132 64.5 201.5t172.5 69.5q107 0 171 -69.5t64 -201.5q0 -133 -64 -201.5t-172 -68.5zM287 89q55 0 79 40t24 131t-24.5 132t-78.5 41q-55 0 -79.5 -41t-24.5 -131
q0 -91 24.5 -131.5t79.5 -40.5z" />
    <glyph glyph-name="oacute" unicode="&#xf3;" horiz-adv-x="573" 
d="M198 593q62 91 94 170h158q-92 -111 -162 -170h-90zM287 -9q-109 0 -172.5 68.5t-63.5 201.5q0 132 64.5 201.5t172.5 69.5q107 0 171 -69.5t64 -201.5q0 -133 -64 -201.5t-172 -68.5zM287 89q55 0 79 40t24 131t-24.5 132t-78.5 41q-55 0 -79.5 -41t-24.5 -131
q0 -91 24.5 -131.5t79.5 -40.5z" />
    <glyph glyph-name="ocircumflex" unicode="&#xf4;" horiz-adv-x="573" 
d="M134 590l-45 58q81 63 146 135h102q62 -70 147 -135l-44 -57q-91 42 -154 94q-68 -55 -152 -95zM287 -9q-109 0 -172.5 68.5t-63.5 201.5q0 132 64.5 201.5t172.5 69.5q107 0 171 -69.5t64 -201.5q0 -133 -64 -201.5t-172 -68.5zM287 89q55 0 79 40t24 131t-24.5 132
t-78.5 41q-55 0 -79.5 -41t-24.5 -131q0 -91 24.5 -131.5t79.5 -40.5z" />
    <glyph glyph-name="otilde" unicode="&#xf5;" horiz-adv-x="573" 
d="M359 601q-53 0 -89 46q-26 36 -38 42q-7 3 -14 3q-34 0 -33 -71v-11h-90v13q0 70 32.5 115t87.5 45q51 0 90 -47q2 -3 10 -13.5t10.5 -14t8.5 -9.5t11 -8t11 -2q34 0 33 72v12h90v-13q0 -71 -32.5 -115t-87.5 -44zM287 -9q-109 0 -172.5 68.5t-63.5 201.5
q0 132 64.5 201.5t172.5 69.5q107 0 171 -69.5t64 -201.5q0 -133 -64 -201.5t-172 -68.5zM287 89q55 0 79 40t24 131t-24.5 132t-78.5 41q-55 0 -79.5 -41t-24.5 -131q0 -91 24.5 -131.5t79.5 -40.5z" />
    <glyph glyph-name="odieresis" unicode="&#xf6;" horiz-adv-x="573" 
d="M383 597q-31 0 -49 18.5t-18 50.5q0 33 18.5 52t48.5 19t49 -19t19 -52q0 -32 -19 -50.5t-49 -18.5zM191 597q-31 0 -49 18.5t-18 50.5q0 33 18.5 52t48.5 19t48.5 -19t18.5 -52q0 -32 -18.5 -50.5t-48.5 -18.5zM287 -9q-109 0 -172.5 68.5t-63.5 201.5q0 132 64.5 201.5
t172.5 69.5q107 0 171 -69.5t64 -201.5q0 -133 -64 -201.5t-172 -68.5zM287 89q55 0 79 40t24 131t-24.5 132t-78.5 41q-55 0 -79.5 -41t-24.5 -131q0 -91 24.5 -131.5t79.5 -40.5z" />
    <glyph glyph-name="divide" unicode="&#xf7;" horiz-adv-x="626" 
d="M315 451q-75 0 -75 71t75 71q74 0 74 -71t-74 -71zM67 252v106h492v-106h-492zM315 16q-75 0 -75 69q0 73 75 73q74 0 74 -72q0 -70 -74 -70z" />
    <glyph glyph-name="oslash" unicode="&#xf8;" horiz-adv-x="573" 
d="M177 261q0 -83 22 -124l131 288q-19 8 -43 8q-58 0 -84 -41t-26 -131zM287 89q58 0 83.5 40t25.5 131q0 76 -17 116l-130 -282q18 -5 38 -5zM287 -9q-39 0 -74 9l-40 -87h-84l56 119q-94 69 -94 229q0 132 64.5 201.5t172.5 69.5q42 0 80 -12l42 90h83l-58 -126
q88 -69 88 -223q0 -133 -64 -201.5t-172 -68.5z" />
    <glyph glyph-name="ugrave" unicode="&#xf9;" 
d="M286 593q-71 60 -164 170h156q25 -59 95 -170h-87zM388 522h132v-523h-129v90q-51 -99 -167 -99q-73 0 -115 47t-42 129v356h133v-336q0 -44 18.5 -67.5t52.5 -23.5q68 0 117 81v346z" />
    <glyph glyph-name="uacute" unicode="&#xfa;" 
d="M204 593q62 91 94 170h158q-86 -106 -162 -170h-90zM388 522h132v-523h-129v90q-51 -99 -167 -99q-73 0 -115 47t-42 129v356h133v-336q0 -44 18.5 -67.5t52.5 -23.5q68 0 117 81v346z" />
    <glyph glyph-name="ucircumflex" unicode="&#xfb;" 
d="M143 590l-44 58q81 64 145 135h103q59 -69 146 -135l-44 -57q-91 42 -154 94q-68 -55 -152 -95zM388 522h132v-523h-129v90q-51 -99 -167 -99q-73 0 -115 47t-42 129v356h133v-336q0 -44 18.5 -67.5t52.5 -23.5q68 0 117 81v346z" />
    <glyph glyph-name="udieresis" unicode="&#xfc;" 
d="M394 597q-30 0 -48.5 18.5t-18.5 50.5q0 33 18.5 52t48.5 19t49 -19t19 -52q0 -32 -19 -50.5t-49 -18.5zM202 597q-30 0 -48.5 18.5t-18.5 50.5q0 33 18.5 52t48.5 19t48.5 -19t18.5 -52q0 -32 -18.5 -50.5t-48.5 -18.5zM388 522h132v-523h-129v90q-51 -99 -167 -99
q-73 0 -115 47t-42 129v356h133v-336q0 -44 18.5 -67.5t52.5 -23.5q68 0 117 81v346z" />
    <glyph glyph-name="yacute" unicode="&#xfd;" horiz-adv-x="528" 
d="M153 593q65 96 94 170h158q-86 -106 -162 -170h-90zM129 -183q-36 0 -91 10l9 98q34 -10 65 -10q38 0 58.5 22.5t34.5 67.5l5 14l-190 503h131l118 -351l114 351h127l-204 -558q-29 -78 -71.5 -112.5t-105.5 -34.5z" />
    <glyph glyph-name="thorn" unicode="&#xfe;" 
d="M304 88q54 0 79.5 42.5t25.5 133.5q0 89 -25.5 126t-71.5 37q-58 0 -108 -59v-249q50 -31 100 -31zM325 -9q-63 0 -121 28v-193h-132v889h132v-278q62 95 156 95q83 0 132.5 -68t49.5 -199q0 -129 -59.5 -201.5t-157.5 -72.5z" />
    <glyph glyph-name="ydieresis" unicode="&#xff;" horiz-adv-x="528" 
d="M348 597q-31 0 -49.5 18.5t-18.5 50.5q0 33 19 52t49 19t49 -19.5t19 -51.5t-19.5 -50.5t-48.5 -18.5zM155 597q-30 0 -48.5 18.5t-18.5 50.5q0 33 18.5 52t48.5 19t49 -19t19 -52q0 -32 -19 -50.5t-49 -18.5zM129 -183q-36 0 -91 10l9 98q34 -10 65 -10q38 0 58.5 22.5
t34.5 67.5l5 14l-190 503h131l118 -351l114 351h127l-204 -558q-29 -78 -71.5 -112.5t-105.5 -34.5z" />
    <glyph glyph-name="Amacron" unicode="&#x100;" horiz-adv-x="647" 
d="M153 803v99h340v-99h-340zM407 270l-89 287l-88 -287h177zM491 0l-52 168h-241l-52 -168h-124l238 696h129l237 -696h-135z" />
    <glyph glyph-name="amacron" unicode="&#x101;" horiz-adv-x="559" 
d="M106 629v100h339v-100h-339zM245 79q55 0 99 46v97h-99q-35 0 -56 -17t-21 -52q0 -74 77 -74zM536 2q-58 -16 -105 1.5t-59 64.5q-67 -77 -171 -77q-72 0 -115.5 41t-43.5 113q0 73 49.5 114t134.5 41h116v50q0 43 -22 66.5t-63 23.5q-39 0 -63.5 -19t-43.5 -64l-95 50
q57 125 210 125q91 0 148.5 -46.5t57.5 -130.5v-223q0 -59 65 -41v-89z" />
    <glyph glyph-name="Abreve" unicode="&#x102;" horiz-adv-x="647" 
d="M323 767q-196 0 -197 190h106q1 -61 21.5 -84.5t69.5 -23.5q50 0 70.5 23.5t21.5 84.5h105q-1 -190 -197 -190zM407 270l-89 287l-88 -287h177zM491 0l-52 168h-241l-52 -168h-124l238 696h129l237 -696h-135z" />
    <glyph glyph-name="abreve" unicode="&#x103;" horiz-adv-x="559" 
d="M276 593q-196 0 -197 191h106q1 -61 21.5 -85t69.5 -24q50 0 70.5 24t21.5 85h106q-1 -191 -198 -191zM245 79q55 0 99 46v97h-99q-35 0 -56 -17t-21 -52q0 -74 77 -74zM536 2q-58 -16 -105 1.5t-59 64.5q-67 -77 -171 -77q-72 0 -115.5 41t-43.5 113q0 73 49.5 114
t134.5 41h116v50q0 43 -22 66.5t-63 23.5q-39 0 -63.5 -19t-43.5 -64l-95 50q57 125 210 125q91 0 148.5 -46.5t57.5 -130.5v-223q0 -59 65 -41v-89z" />
    <glyph glyph-name="Aogonek" unicode="&#x104;" horiz-adv-x="647" 
d="M407 270l-89 287l-88 -287h177zM642 -181q-43 -10 -89 -10q-65 0 -101 27t-36 77q0 66 67 114l-44 141h-241l-52 -168h-124l238 696h129l237 -696h-91q-26 -29 -26 -59q0 -48 65 -48q24 0 69 9z" />
    <glyph glyph-name="aogonek" unicode="&#x105;" horiz-adv-x="559" 
d="M245 79q55 0 99 46v97h-99q-35 0 -56 -17t-21 -52q0 -74 77 -74zM567 -181q-43 -10 -89 -10q-65 0 -101.5 27t-36.5 77q0 60 61 108q-22 19 -29 47q-67 -77 -171 -77q-72 0 -115.5 41t-43.5 113q0 73 49.5 114t134.5 41h116v50q0 43 -22 66.5t-63 23.5q-39 0 -63.5 -19
t-43.5 -64l-95 50q57 125 210 125q91 0 148.5 -46.5t57.5 -130.5v-223q0 -59 65 -41v-89q-44 -11 -79 -5q-23 -26 -23 -56q0 -48 65 -48q24 0 69 9z" />
    <glyph glyph-name="Cacute" unicode="&#x106;" horiz-adv-x="651" 
d="M242 767q65 99 93 170h159q-90 -108 -163 -170h-89zM338 -9q-284 0 -284 366q0 171 72.5 259.5t212.5 88.5q118 0 186 -60t77 -165l-128 -24q-9 77 -39.5 112t-96.5 35q-76 0 -114 -58.5t-38 -187.5q0 -140 37.5 -201t114.5 -61q67 0 98 34t38 108l128 -24
q-8 -102 -76.5 -162t-187.5 -60z" />
    <glyph glyph-name="cacute" unicode="&#x107;" horiz-adv-x="535" 
d="M186 593q62 93 93 170h159q-90 -108 -163 -170h-89zM284 -9q-113 0 -173 70t-60 203q0 130 61 199t172 69q82 0 138 -41.5t75 -114.5l-120 -36q-21 93 -92 93q-54 0 -78 -41.5t-24 -127.5q0 -91 24 -133t79 -42q38 0 59.5 19t31.5 67l120 -36q-45 -148 -213 -148z" />
    <glyph glyph-name="Ccircumflex" unicode="&#x108;" horiz-adv-x="651" 
d="M182 764l-45 58q80 62 146 134h102q63 -70 147 -134l-44 -57q-90 42 -155 94q-66 -54 -151 -95zM338 -9q-284 0 -284 366q0 171 72.5 259.5t212.5 88.5q118 0 186 -60t77 -165l-128 -24q-9 77 -39.5 112t-96.5 35q-76 0 -114 -58.5t-38 -187.5q0 -140 37.5 -201
t114.5 -61q67 0 98 34t38 108l128 -24q-8 -102 -76.5 -162t-187.5 -60z" />
    <glyph glyph-name="ccircumflex" unicode="&#x109;" horiz-adv-x="535" 
d="M123 590l-45 58q81 63 146 135h102q62 -70 147 -135l-44 -57q-90 42 -155 94q-66 -54 -151 -95zM284 -9q-113 0 -173 70t-60 203q0 130 61 199t172 69q82 0 138 -41.5t75 -114.5l-120 -36q-21 93 -92 93q-54 0 -78 -41.5t-24 -127.5q0 -91 24 -133t79 -42q38 0 59.5 19
t31.5 67l120 -36q-45 -148 -213 -148z" />
    <glyph glyph-name="Cdotaccent" unicode="&#x10a;" horiz-adv-x="651" 
d="M334 770q-35 0 -57.5 18.5t-22.5 50.5q0 33 22.5 52.5t57.5 19.5q36 0 58.5 -19.5t22.5 -52.5q0 -32 -23 -50.5t-58 -18.5zM338 -9q-284 0 -284 366q0 171 72.5 259.5t212.5 88.5q118 0 186 -60t77 -165l-128 -24q-9 77 -39.5 112t-96.5 35q-76 0 -114 -58.5t-38 -187.5
q0 -140 37.5 -201t114.5 -61q67 0 98 34t38 108l128 -24q-8 -102 -76.5 -162t-187.5 -60z" />
    <glyph glyph-name="cdotaccent" unicode="&#x10b;" horiz-adv-x="535" 
d="M271 597q-35 0 -57.5 18.5t-22.5 50.5t22.5 51.5t57.5 19.5q36 0 58.5 -19t22.5 -52q0 -32 -22.5 -50.5t-58.5 -18.5zM284 -9q-113 0 -173 70t-60 203q0 130 61 199t172 69q82 0 138 -41.5t75 -114.5l-120 -36q-21 93 -92 93q-54 0 -78 -41.5t-24 -127.5q0 -91 24 -133
t79 -42q38 0 59.5 19t31.5 67l120 -36q-45 -148 -213 -148z" />
    <glyph glyph-name="Ccaron" unicode="&#x10c;" horiz-adv-x="651" 
d="M284 772q-63 72 -147 135l44 57q75 -38 154 -95q68 54 152 95l45 -57q-83 -63 -146 -135h-102zM338 -9q-284 0 -284 366q0 171 72.5 259.5t212.5 88.5q118 0 186 -60t77 -165l-128 -24q-9 77 -39.5 112t-96.5 35q-76 0 -114 -58.5t-38 -187.5q0 -140 37.5 -201t114.5 -61
q67 0 98 34t38 108l128 -24q-8 -102 -76.5 -162t-187.5 -60z" />
    <glyph glyph-name="ccaron" unicode="&#x10d;" horiz-adv-x="535" 
d="M221 599q-64 72 -147 134l44 58q84 -44 154 -96q66 52 152 96l44 -58q-82 -64 -145 -134h-102zM284 -9q-113 0 -173 70t-60 203q0 130 61 199t172 69q82 0 138 -41.5t75 -114.5l-120 -36q-21 93 -92 93q-54 0 -78 -41.5t-24 -127.5q0 -91 24 -133t79 -42q38 0 59.5 19
t31.5 67l120 -36q-45 -148 -213 -148z" />
    <glyph glyph-name="Dcaron" unicode="&#x10e;" horiz-adv-x="681" 
d="M283 772q-63 72 -147 135l44 57q75 -38 154 -95q68 54 152 95l44 -57q-83 -65 -145 -135h-102zM77 0v696h262q131 0 209.5 -89t78.5 -256q0 -172 -78.5 -261.5t-210.5 -89.5h-261zM209 103h112q87 0 130 58t43 190q0 127 -43 184.5t-130 57.5h-112v-490z" />
    <glyph glyph-name="dcaron" unicode="&#x10f;" horiz-adv-x="598" 
d="M565 557q30 111 37 227h114q-18 -130 -87 -227h-64zM288 434q-54 0 -79.5 -42t-25.5 -134q0 -89 25 -125.5t72 -36.5q61 0 107 59v248q-46 31 -99 31zM267 532q60 0 120 -29v213h132v-716h-128v86q-51 -95 -158 -95q-83 0 -133 68t-50 199q0 129 59.5 201.5t157.5 72.5z
" />
    <glyph glyph-name="Dcroat" unicode="&#x110;" horiz-adv-x="681" 
d="M338 0h-261v337h-80v89h80v270h262q131 0 209.5 -89t78.5 -256q0 -172 -78.5 -261.5t-210.5 -89.5zM209 103h112q87 0 130 58t43 190q0 127 -43 184.5t-130 57.5h-112v-167h137v-89h-137v-234z" />
    <glyph glyph-name="dcroat" unicode="&#x111;" 
d="M289 401q-55 -1 -80.5 -38.5t-25.5 -120.5q0 -80 25.5 -113t71.5 -33q60 0 107 58v216q-44 30 -98 31zM391 85q-53 -94 -158 -94q-83 0 -132.5 63.5t-49.5 186.5q0 121 58.5 189.5t156.5 68.5q62 0 121 -28v74h-137v75h137v96h132v-96h77v-75h-77v-545h-128v85z" />
    <glyph glyph-name="Emacron" unicode="&#x112;" horiz-adv-x="580" 
d="M129 803v99h339v-99h-339zM77 0v696h450v-103h-318v-169h279v-103h-279v-218h318v-103h-450z" />
    <glyph glyph-name="emacron" unicode="&#x113;" horiz-adv-x="560" 
d="M114 629v100h339v-100h-339zM286 440q-50 0 -76 -30t-32 -100h205q-1 130 -97 130zM502 76q-72 -85 -205 -85q-114 0 -180 69.5t-66 201.5q0 131 64 200.5t171 69.5q103 0 163 -66t60 -184v-58h-330q6 -73 36.5 -106.5t87.5 -33.5q75 0 130 62z" />
    <glyph glyph-name="Ebreve" unicode="&#x114;" horiz-adv-x="580" 
d="M299 767q-196 0 -197 190h105q1 -61 21.5 -84.5t70.5 -23.5q49 0 69.5 23.5t21.5 84.5h106q-1 -190 -197 -190zM77 0v696h450v-103h-318v-169h279v-103h-279v-218h318v-103h-450z" />
    <glyph glyph-name="ebreve" unicode="&#x115;" horiz-adv-x="560" 
d="M284 593q-197 0 -198 191h106q1 -62 21.5 -85.5t70.5 -23.5q49 0 69.5 24t21.5 85h106q-1 -191 -197 -191zM286 440q-50 0 -76 -30t-32 -100h205q-1 130 -97 130zM502 76q-72 -85 -205 -85q-114 0 -180 69.5t-66 201.5q0 131 64 200.5t171 69.5q103 0 163 -66t60 -184
v-58h-330q6 -73 36.5 -106.5t87.5 -33.5q75 0 130 62z" />
    <glyph glyph-name="Edotaccent" unicode="&#x116;" horiz-adv-x="580" 
d="M299 770q-36 0 -58.5 18.5t-22.5 50.5q0 33 22.5 52.5t58.5 19.5t58 -19.5t22 -52.5q0 -32 -22.5 -50.5t-57.5 -18.5zM77 0v696h450v-103h-318v-169h279v-103h-279v-218h318v-103h-450z" />
    <glyph glyph-name="edotaccent" unicode="&#x117;" horiz-adv-x="560" 
d="M284 597q-36 0 -58.5 18.5t-22.5 50.5q0 33 22.5 52t58.5 19q35 0 57.5 -19.5t22.5 -51.5t-22.5 -50.5t-57.5 -18.5zM286 440q-50 0 -76 -30t-32 -100h205q-1 130 -97 130zM502 76q-72 -85 -205 -85q-114 0 -180 69.5t-66 201.5q0 131 64 200.5t171 69.5q103 0 163 -66
t60 -184v-58h-330q6 -73 36.5 -106.5t87.5 -33.5q75 0 130 62z" />
    <glyph glyph-name="Eogonek" unicode="&#x118;" horiz-adv-x="580" 
d="M521 -181q-43 -10 -89 -10q-64 0 -100.5 27t-36.5 77q0 47 37 87h-255v696h450v-103h-318v-169h279v-103h-279v-218h318v-103h-113q-26 -29 -26 -59q0 -48 65 -48q24 0 69 9z" />
    <glyph glyph-name="eogonek" unicode="&#x119;" horiz-adv-x="560" 
d="M286 440q-50 0 -76 -30t-32 -100h205q-1 130 -97 130zM499 -181q-44 -10 -89 -10q-65 0 -101.5 27t-36.5 77q0 40 30 78h-5q-114 0 -180 69.5t-66 201.5q0 131 64 200.5t171 69.5q103 0 163 -66t60 -184v-58h-330q6 -73 36.5 -106.5t87.5 -33.5q75 0 130 62l69 -70
q-39 -46 -103 -68q-33 -33 -33 -67q0 -48 65 -48q24 0 69 9z" />
    <glyph glyph-name="Ecaron" unicode="&#x11a;" horiz-adv-x="580" 
d="M248 772q-62 70 -146 135l43 57q73 -37 155 -95q69 55 151 95l45 -57q-84 -64 -145 -135h-103zM77 0v696h450v-103h-318v-169h279v-103h-279v-218h318v-103h-450z" />
    <glyph glyph-name="ecaron" unicode="&#x11b;" horiz-adv-x="560" 
d="M229 599q-64 72 -147 134l44 58q84 -44 154 -96q66 52 152 96l45 -58q-81 -62 -146 -134h-102zM286 440q-50 0 -76 -30t-32 -100h205q-1 130 -97 130zM502 76q-72 -85 -205 -85q-114 0 -180 69.5t-66 201.5q0 131 64 200.5t171 69.5q103 0 163 -66t60 -184v-58h-330
q6 -73 36.5 -106.5t87.5 -33.5q75 0 130 62z" />
    <glyph glyph-name="Gcircumflex" unicode="&#x11c;" horiz-adv-x="667" 
d="M184 764l-45 58q80 62 146 134h102q63 -70 147 -134l-44 -57q-90 42 -155 94q-66 -54 -151 -95zM615 288q0 -148 -73 -222.5t-200 -74.5q-139 0 -213.5 92t-74.5 274q0 169 74.5 258.5t210.5 89.5q113 0 181 -53t79 -147l-129 -23q-9 60 -39 90.5t-91 30.5
q-77 0 -115.5 -59t-38.5 -187q0 -139 38 -200.5t114 -61.5q72 0 107 36.5t38 125.5h-141v103h273v-72z" />
    <glyph glyph-name="gcircumflex" unicode="&#x11d;" horiz-adv-x="596" 
d="M146 590l-44 58q81 64 145 135h103q59 -69 146 -135l-44 -57q-91 42 -154 94q-68 -55 -152 -95zM283 275q37 0 60.5 21.5t23.5 64.5t-23.5 63.5t-60.5 20.5t-61 -20.5t-24 -63.5t24 -64.5t61 -21.5zM561 -13q0 -81 -75 -130t-207 -49q-123 0 -180 35t-57 88q0 70 82 106
q-59 30 -59 92q0 37 21.5 67.5t58.5 44.5q-65 47 -65 123q0 70 57.5 116t144.5 46q28 0 49 -4h220v-85q-55 5 -98 18q32 -40 32 -91q0 -72 -57 -118.5t-146 -46.5q-39 0 -80 12q-36 -19 -36 -50q0 -40 60 -40h167q78 0 123 -34t45 -100zM293 -107q151 0 151 74q0 49 -65 49
h-164q-9 0 -27 2q-26 -25 -26 -59q0 -32 27.5 -49t103.5 -17z" />
    <glyph glyph-name="Gbreve" unicode="&#x11e;" horiz-adv-x="667" 
d="M336 767q-196 0 -197 190h106q1 -61 21.5 -84.5t69.5 -23.5q50 0 70.5 23.5t21.5 84.5h106q-1 -190 -198 -190zM615 288q0 -148 -73 -222.5t-200 -74.5q-139 0 -213.5 92t-74.5 274q0 169 74.5 258.5t210.5 89.5q113 0 181 -53t79 -147l-129 -23q-9 60 -39 90.5t-91 30.5
q-77 0 -115.5 -59t-38.5 -187q0 -139 38 -200.5t114 -61.5q72 0 107 36.5t38 125.5h-141v103h273v-72z" />
    <glyph glyph-name="gbreve" unicode="&#x11f;" horiz-adv-x="596" 
d="M299 593q-196 0 -197 191h105q1 -61 21.5 -85t70.5 -24q49 0 69.5 24t21.5 85h106q-1 -191 -197 -191zM283 275q37 0 60.5 21.5t23.5 64.5t-23.5 63.5t-60.5 20.5t-61 -20.5t-24 -63.5t24 -64.5t61 -21.5zM561 -13q0 -81 -75 -130t-207 -49q-123 0 -180 35t-57 88
q0 70 82 106q-59 30 -59 92q0 37 21.5 67.5t58.5 44.5q-65 47 -65 123q0 70 57.5 116t144.5 46q28 0 49 -4h220v-85q-55 5 -98 18q32 -40 32 -91q0 -72 -57 -118.5t-146 -46.5q-39 0 -80 12q-36 -19 -36 -50q0 -40 60 -40h167q78 0 123 -34t45 -100zM293 -107q151 0 151 74
q0 49 -65 49h-164q-9 0 -27 2q-26 -25 -26 -59q0 -32 27.5 -49t103.5 -17z" />
    <glyph glyph-name="Gdotaccent" unicode="&#x120;" horiz-adv-x="667" 
d="M336 770q-35 0 -57.5 18.5t-22.5 50.5q0 33 22.5 52.5t57.5 19.5q36 0 58.5 -19.5t22.5 -52.5q0 -32 -23 -50.5t-58 -18.5zM615 288q0 -148 -73 -222.5t-200 -74.5q-139 0 -213.5 92t-74.5 274q0 169 74.5 258.5t210.5 89.5q113 0 181 -53t79 -147l-129 -23
q-9 60 -39 90.5t-91 30.5q-77 0 -115.5 -59t-38.5 -187q0 -139 38 -200.5t114 -61.5q72 0 107 36.5t38 125.5h-141v103h273v-72z" />
    <glyph glyph-name="gdotaccent" unicode="&#x121;" horiz-adv-x="596" 
d="M299 597q-36 0 -58.5 18.5t-22.5 50.5q0 33 22.5 52t58.5 19t58 -19t22 -52q0 -32 -22.5 -50.5t-57.5 -18.5zM283 275q37 0 60.5 21.5t23.5 64.5t-23.5 63.5t-60.5 20.5t-61 -20.5t-24 -63.5t24 -64.5t61 -21.5zM561 -13q0 -81 -75 -130t-207 -49q-123 0 -180 35t-57 88
q0 70 82 106q-59 30 -59 92q0 37 21.5 67.5t58.5 44.5q-65 47 -65 123q0 70 57.5 116t144.5 46q28 0 49 -4h220v-85q-55 5 -98 18q32 -40 32 -91q0 -72 -57 -118.5t-146 -46.5q-39 0 -80 12q-36 -19 -36 -50q0 -40 60 -40h167q78 0 123 -34t45 -100zM293 -107q151 0 151 74
q0 49 -65 49h-164q-9 0 -27 2q-26 -25 -26 -59q0 -32 27.5 -49t103.5 -17z" />
    <glyph glyph-name="Gcommaaccent" unicode="&#x122;" horiz-adv-x="667" 
d="M615 288q0 -148 -73 -222.5t-200 -74.5q-139 0 -213.5 92t-74.5 274q0 169 74.5 258.5t210.5 89.5q113 0 181 -53t79 -147l-129 -23q-9 60 -39 90.5t-91 30.5q-77 0 -115.5 -59t-38.5 -187q0 -139 38 -200.5t114 -61.5q72 0 107 36.5t38 125.5h-141v103h273v-72z
M225 -251q36 83 62 174h156q-46 -82 -131 -174h-87z" />
    <glyph glyph-name="gcommaaccent" unicode="&#x123;" horiz-adv-x="596" 
d="M231 600q50 87 131 173h87q-44 -99 -62 -173h-156zM283 275q37 0 60.5 21.5t23.5 64.5t-23.5 63.5t-60.5 20.5t-61 -20.5t-24 -63.5t24 -64.5t61 -21.5zM561 -13q0 -81 -75 -130t-207 -49q-123 0 -180 35t-57 88q0 70 82 106q-59 30 -59 92q0 37 21.5 67.5t58.5 44.5
q-65 47 -65 123q0 70 57.5 116t144.5 46q28 0 49 -4h220v-85q-55 5 -98 18q32 -40 32 -91q0 -72 -57 -118.5t-146 -46.5q-39 0 -80 12q-36 -19 -36 -50q0 -40 60 -40h167q78 0 123 -34t45 -100zM293 -107q151 0 151 74q0 49 -65 49h-164q-9 0 -27 2q-26 -25 -26 -59
q0 -32 27.5 -49t103.5 -17z" />
    <glyph glyph-name="Hcircumflex" unicode="&#x124;" horiz-adv-x="691" 
d="M193 764l-45 58q80 62 146 134h102q63 -70 147 -134l-44 -57q-91 42 -154 94q-68 -55 -152 -95zM77 0v696h132v-263h272v263h133v-696h-133v330h-272v-330h-132z" />
    <glyph glyph-name="hcircumflex" unicode="&#x125;" 
d="M-16 764l-45 58q81 63 145 134h103q65 -72 146 -134l-43 -57q-90 42 -155 94q-70 -56 -151 -95zM204 0h-132v715h132v-282q53 99 165 99q72 0 113.5 -47.5t41.5 -128.5v-356h-132v335q0 45 -18.5 68.5t-52.5 23.5q-67 0 -117 -81v-346z" />
    <glyph glyph-name="Hbar" unicode="&#x126;" horiz-adv-x="691" 
d="M209 362h272v129h-272v-129zM209 259v-259h-132v491h-80v88h80v117h132v-117h272v117h133v-117h79v-88h-79v-491h-133v259h-272z" />
    <glyph glyph-name="hbar" unicode="&#x127;" 
d="M204 313v-313h-132v545h-70v75h70v95h132v-95h143v-75h-143v-146q53 100 165 100q72 0 113.5 -47t41.5 -129v-323h-132v303q0 44 -18.5 67.5t-52.5 23.5q-67 0 -117 -81z" />
    <glyph glyph-name="Itilde" unicode="&#x128;" horiz-adv-x="496" 
d="M320 774q-53 0 -88 47q-3 3 -10 12.5t-10.5 13l-9.5 9.5t-11 8t-11 2q-35 0 -34 -71v-11h-90v13q0 70 33 114.5t88 44.5q51 0 89 -46q3 -4 10.5 -13.5t10.5 -13.5t9 -10t11 -8t10 -2q35 0 34 72v12h89v-13q0 -72 -32.5 -116t-87.5 -44zM49 0v103h133v490h-133v103h398
v-103h-133v-490h133v-103h-398z" />
    <glyph glyph-name="itilde" unicode="&#x129;" horiz-adv-x="288" 
d="M216 601q-54 0 -88 46q-26 36 -38 42q-7 3 -14 3q-34 0 -33 -71v-11h-91v13q0 70 33 115t88 45q32 0 51 -12t39 -35q2 -3 9.5 -13.5t10.5 -14t9 -9.5t11 -8t10 -2q35 0 34 72v12h89v-13q0 -71 -32 -115t-88 -44zM76 0v522h132v-522h-132z" />
    <glyph glyph-name="Imacron" unicode="&#x12a;" horiz-adv-x="496" 
d="M79 803v99h340v-99h-340zM49 0v103h133v490h-133v103h398v-103h-133v-490h133v-103h-398z" />
    <glyph glyph-name="imacron" unicode="&#x12b;" horiz-adv-x="288" 
d="M-25 629v100h339v-100h-339zM76 0v522h132v-522h-132z" />
    <glyph glyph-name="Ibreve" unicode="&#x12c;" horiz-adv-x="496" 
d="M247 767q-196 0 -197 190h105q1 -61 22 -84.5t70 -23.5t69.5 23.5t21.5 84.5h106q-1 -190 -197 -190zM49 0v103h133v490h-133v103h398v-103h-133v-490h133v-103h-398z" />
    <glyph glyph-name="ibreve" unicode="&#x12d;" horiz-adv-x="288" 
d="M144 593q-196 0 -197 191h106q1 -61 21.5 -85t69.5 -24q50 0 70.5 24t21.5 85h105q-1 -191 -197 -191zM76 0v522h132v-522h-132z" />
    <glyph glyph-name="Iogonek" unicode="&#x12e;" horiz-adv-x="496" 
d="M398 -181q-43 -10 -89 -10q-64 0 -100.5 27t-36.5 77q0 47 37 87h-160v103h133v490h-133v103h398v-103h-133v-490h133v-103h-156q-26 -29 -26 -59q0 -48 65 -48q24 0 69 9z" />
    <glyph glyph-name="iogonek" unicode="&#x12f;" horiz-adv-x="288" 
d="M142 597q-36 0 -58 18.5t-22 50.5q0 33 22 52t58 19t58 -19t22 -53q0 -32 -22.5 -50t-57.5 -18zM258 -181q-43 -10 -89 -10q-65 0 -101 27t-36 77q0 52 44 94v515h132v-522h-57q-26 -27 -26 -59q0 -48 65 -48q24 0 69 9z" />
    <glyph glyph-name="Idotaccent" unicode="&#x130;" horiz-adv-x="496" 
d="M248 770q-36 0 -58 18.5t-22 50.5q0 33 22 52.5t58 19.5t58 -19.5t22 -52.5q0 -32 -22.5 -50.5t-57.5 -18.5zM49 0v103h133v490h-133v103h398v-103h-133v-490h133v-103h-398z" />
    <glyph glyph-name="dotlessi" unicode="&#x131;" horiz-adv-x="285" 
d="M76 0v522h132v-522h-132z" />
    <glyph glyph-name="IJ" unicode="&#x132;" horiz-adv-x="1044" 
d="M49 0v103h133v490h-133v103h398v-103h-133v-490h133v-103h-398zM729 -9q-110 0 -172.5 59t-70.5 171l125 23q7 -77 33.5 -110.5t83.5 -33.5q109 0 109 141v455h133v-459q0 -111 -63.5 -178.5t-177.5 -67.5z" />
    <glyph glyph-name="ij" unicode="&#x133;" horiz-adv-x="573" 
d="M144 598q-35 0 -57.5 18.5t-22.5 50.5t22.5 51.5t57.5 19.5q36 0 58.5 -19t22.5 -52q0 -32 -22.5 -50.5t-58.5 -18.5zM429 597q-36 0 -58 18.5t-22 50.5q0 33 22 52t58 19t58 -19t22 -52q0 -32 -22.5 -50.5t-57.5 -18.5zM76 0v522h132v-522h-132zM311 -182q-43 0 -102 19
l16 93q46 -18 71 -18q63 0 63 83v527h134v-534q0 -83 -51 -126.5t-131 -43.5z" />
    <glyph glyph-name="Jcircumflex" unicode="&#x134;" horiz-adv-x="580" 
d="M273 764l-44 58q76 59 145 134h103q60 -69 146 -134l-44 -57q-87 41 -154 94q-68 -55 -152 -95zM265 -9q-110 0 -172 59t-71 171l125 23q8 -77 34 -110.5t83 -33.5q110 0 110 141v455h132v-459q0 -111 -63.5 -178.5t-177.5 -67.5z" />
    <glyph glyph-name="jcircumflex" unicode="&#x135;" horiz-adv-x="298" 
d="M-2 590l-45 58q81 63 146 135h102q62 -70 147 -135l-44 -57q-90 42 -155 94q-66 -54 -151 -95zM40 -182q-43 0 -102 19l15 93q47 -18 71 -18q63 0 63 83v527h135v-534q0 -83 -51.5 -126.5t-130.5 -43.5z" />
    <glyph glyph-name="Kcommaaccent" unicode="&#x136;" horiz-adv-x="641" 
d="M463 0l-160 327l-97 -129v-198h-129v696h129v-341l260 340h144l-214 -277l212 -418h-145zM195 -251q37 84 62 174h157q-47 -82 -131 -174h-88z" />
    <glyph glyph-name="kcommaaccent" unicode="&#x137;" horiz-adv-x="550" 
d="M381 0l-113 217l-68 -90v-127h-128v716h128v-447l189 253h131l-160 -212l163 -310h-142zM164 -251q36 83 62 174h156q-46 -82 -131 -174h-87z" />
    <glyph glyph-name="kgreenlandic" unicode="&#x138;" horiz-adv-x="550" 
d="M381 0l-113 217l-68 -90v-127h-128v522h128v-253l189 253h131l-160 -212l163 -310h-142z" />
    <glyph glyph-name="Lacute" unicode="&#x139;" horiz-adv-x="526" 
d="M60 767q62 93 93 170h159q-90 -108 -163 -170h-89zM77 0v696h132v-593h287v-103h-419z" />
    <glyph glyph-name="lacute" unicode="&#x13a;" horiz-adv-x="284" 
d="M74 767q62 91 94 170h158q-92 -111 -162 -170h-90zM76 0v716h132v-716h-132z" />
    <glyph glyph-name="Lcommaaccent" unicode="&#x13b;" horiz-adv-x="526" 
d="M77 0v696h132v-593h287v-103h-419zM176 -251q40 93 62 174h156q-46 -82 -131 -174h-87z" />
    <glyph glyph-name="lcommaaccent" unicode="&#x13c;" horiz-adv-x="284" 
d="M76 0v716h132v-716h-132zM9 -251q37 84 62 174h157q-47 -82 -131 -174h-88z" />
    <glyph glyph-name="Lcaron" unicode="&#x13d;" horiz-adv-x="526" 
d="M336 470q29 105 37 226h115q-17 -129 -88 -226h-64zM77 0v696h132v-593h287v-103h-419z" />
    <glyph glyph-name="lcaron" unicode="&#x13e;" horiz-adv-x="295" 
d="M267 557q29 105 37 227h115q-19 -130 -88 -227h-64zM76 0v716h132v-716h-132z" />
    <glyph glyph-name="Ldot" unicode="&#x13f;" horiz-adv-x="526" 
d="M77 0v696h132v-593h287v-103h-419zM407 330q-36 0 -58.5 18.5t-22.5 50.5q0 33 22.5 52.5t58.5 19.5q35 0 57.5 -19.5t22.5 -52.5q0 -32 -22.5 -50.5t-57.5 -18.5z" />
    <glyph glyph-name="ldot" unicode="&#x140;" horiz-adv-x="379" 
d="M76 0v716h132v-716h-132zM331 267q-35 0 -57.5 18.5t-22.5 50.5q0 33 22.5 52.5t57.5 19.5q36 0 58.5 -19.5t22.5 -52.5q0 -32 -23 -50.5t-58 -18.5z" />
    <glyph glyph-name="Lslash" unicode="&#x141;" horiz-adv-x="526" 
d="M496 0h-419v295l-62 -22v89l62 21v313h132v-266l149 52v-88l-149 -52v-239h287v-103z" />
    <glyph glyph-name="lslash" unicode="&#x142;" horiz-adv-x="364" 
d="M115 0v282l-93 -25v89l93 24v346h135v-313l99 29v-89l-99 -28v-315h-135z" />
    <glyph glyph-name="Nacute" unicode="&#x143;" horiz-adv-x="691" 
d="M274 767q65 96 94 170h158q-86 -106 -162 -170h-90zM472 0l-280 516v-516h-115v696h145l277 -502v502h115v-696h-142z" />
    <glyph glyph-name="nacute" unicode="&#x144;" 
d="M221 593q65 99 93 170h159q-90 -108 -163 -170h-89zM205 0h-132v522h129v-89q51 99 167 99q73 0 114.5 -47t41.5 -129v-356h-133v336q0 44 -18.5 67.5t-52.5 23.5q-67 0 -116 -81v-346z" />
    <glyph glyph-name="Ncommaaccent" unicode="&#x145;" horiz-adv-x="691" 
d="M472 0l-280 516v-516h-115v696h145l277 -502v502h115v-696h-142zM200 -251q37 84 62 174h157q-47 -82 -131 -174h-88z" />
    <glyph glyph-name="ncommaaccent" unicode="&#x146;" 
d="M205 0h-132v522h129v-89q51 99 167 99q73 0 114.5 -47t41.5 -129v-356h-133v336q0 44 -18.5 67.5t-52.5 23.5q-67 0 -116 -81v-346zM164 -251q36 83 62 174h156q-46 -82 -131 -174h-87z" />
    <glyph glyph-name="Ncaron" unicode="&#x147;" horiz-adv-x="691" 
d="M308 772q-62 70 -146 135l43 57q73 -37 155 -95q69 55 151 95l45 -57q-84 -64 -145 -135h-103zM472 0l-280 516v-516h-115v696h145l277 -502v502h115v-696h-142z" />
    <glyph glyph-name="ncaron" unicode="&#x148;" 
d="M249 599q-63 70 -146 134l43 58q83 -43 155 -96q68 54 151 96l45 -58q-83 -63 -145 -134h-103zM205 0h-132v522h129v-89q51 99 167 99q73 0 114.5 -47t41.5 -129v-356h-133v336q0 44 -18.5 67.5t-52.5 23.5q-67 0 -116 -81v-346z" />
    <glyph glyph-name="napostrophe" unicode="&#x149;" 
d="M-29 593q65 99 93 170h159q-90 -108 -163 -170h-89zM205 0h-132v522h129v-89q51 99 167 99q73 0 114.5 -47t41.5 -129v-356h-133v336q0 44 -18.5 67.5t-52.5 23.5q-67 0 -116 -81v-346z" />
    <glyph glyph-name="Eng" unicode="&#x14a;" horiz-adv-x="690" 
d="M431 -182q-44 0 -103 19l17 93q46 -18 71 -18q64 0 64 83v494q0 54 -31.5 83t-84.5 29q-88 0 -155 -108v-493h-132v696h129v-116q66 125 206 125q90 0 145.5 -52t55.5 -141v-524q0 -83 -51 -126.5t-131 -43.5z" />
    <glyph glyph-name="eng" unicode="&#x14b;" 
d="M345 -182q-46 0 -103 19l16 93q46 -18 70 -18q64 0 64 83v340q0 45 -18.5 68.5t-52.5 23.5q-67 0 -117 -81v-346h-132v522h129v-89q53 99 168 99q72 0 113.5 -47.5t41.5 -128.5v-368q0 -83 -50.5 -126.5t-128.5 -43.5z" />
    <glyph glyph-name="Omacron" unicode="&#x14c;" horiz-adv-x="685" 
d="M173 803v99h339v-99h-339zM342 -9q-138 0 -213 90.5t-75 274.5q0 173 76 261t213 88q138 0 213 -88t75 -260q0 -185 -75 -275.5t-214 -90.5zM342 95q80 0 118 59.5t38 202.5q0 132 -38.5 189t-117.5 57q-80 0 -118 -57.5t-38 -190.5q0 -142 38 -201t118 -59z" />
    <glyph glyph-name="omacron" unicode="&#x14d;" horiz-adv-x="573" 
d="M117 629v100h339v-100h-339zM287 -9q-109 0 -172.5 68.5t-63.5 201.5q0 132 64.5 201.5t172.5 69.5q107 0 171 -69.5t64 -201.5q0 -133 -64 -201.5t-172 -68.5zM287 89q55 0 79 40t24 131t-24.5 132t-78.5 41q-55 0 -79.5 -41t-24.5 -131q0 -91 24.5 -131.5t79.5 -40.5z
" />
    <glyph glyph-name="Obreve" unicode="&#x14e;" horiz-adv-x="685" 
d="M342 767q-196 0 -197 190h106q1 -61 21.5 -84.5t69.5 -23.5q50 0 70.5 23.5t21.5 84.5h106q-1 -190 -198 -190zM342 -9q-138 0 -213 90.5t-75 274.5q0 173 76 261t213 88q138 0 213 -88t75 -260q0 -185 -75 -275.5t-214 -90.5zM342 95q80 0 118 59.5t38 202.5
q0 132 -38.5 189t-117.5 57q-80 0 -118 -57.5t-38 -190.5q0 -142 38 -201t118 -59z" />
    <glyph glyph-name="obreve" unicode="&#x14f;" horiz-adv-x="573" 
d="M287 593q-197 0 -198 191h106q1 -61 21.5 -85t70.5 -24q49 0 69.5 24t21.5 85h106q-1 -191 -197 -191zM287 -9q-109 0 -172.5 68.5t-63.5 201.5q0 132 64.5 201.5t172.5 69.5q107 0 171 -69.5t64 -201.5q0 -133 -64 -201.5t-172 -68.5zM287 89q55 0 79 40t24 131
t-24.5 132t-78.5 41q-55 0 -79.5 -41t-24.5 -131q0 -91 24.5 -131.5t79.5 -40.5z" />
    <glyph glyph-name="Ohungarumlaut" unicode="&#x150;" horiz-adv-x="685" 
d="M208 767q31 88 47 170h129q-36 -72 -106 -170h-70zM385 767q34 101 47 170h128q-36 -77 -106 -170h-69zM342 -9q-138 0 -213 90.5t-75 274.5q0 173 76 261t213 88q138 0 213 -88t75 -260q0 -185 -75 -275.5t-214 -90.5zM342 95q80 0 118 59.5t38 202.5q0 132 -38.5 189
t-117.5 57q-80 0 -118 -57.5t-38 -190.5q0 -142 38 -201t118 -59z" />
    <glyph glyph-name="ohungarumlaut" unicode="&#x151;" horiz-adv-x="573" 
d="M161 593q31 92 46 170h129q-34 -68 -105 -170h-70zM337 593q32 90 47 170h128q-35 -74 -105 -170h-70zM287 -9q-109 0 -172.5 68.5t-63.5 201.5q0 132 64.5 201.5t172.5 69.5q107 0 171 -69.5t64 -201.5q0 -133 -64 -201.5t-172 -68.5zM287 89q55 0 79 40t24 131
t-24.5 132t-78.5 41q-55 0 -79.5 -41t-24.5 -131q0 -91 24.5 -131.5t79.5 -40.5z" />
    <glyph glyph-name="OE" unicode="&#x152;" horiz-adv-x="975" 
d="M355 0q-132 0 -210 89.5t-78 261.5q0 167 78 256t209 89h567v-103h-311v-169h271v-103h-271v-218h311v-103h-566zM372 103h106v490h-106q-86 0 -129 -57.5t-43 -184.5q0 -132 42.5 -190t129.5 -58z" />
    <glyph glyph-name="oe" unicode="&#x153;" horiz-adv-x="907" 
d="M632 440q-49 0 -75 -30t-32 -100h205q-3 130 -98 130zM287 89q55 0 79 40t24 131t-24.5 132t-78.5 41q-55 0 -79.5 -41t-24.5 -131q0 -91 24.5 -131.5t79.5 -40.5zM849 76q-72 -85 -206 -85q-119 0 -182 81q-59 -81 -174 -81q-109 0 -172.5 68.5t-63.5 201.5
q0 132 64.5 201.5t172.5 69.5q112 0 172 -80q60 80 172 80q102 0 163 -66t61 -184v-58h-331q7 -73 37 -106.5t87 -33.5q77 0 130 62z" />
    <glyph glyph-name="Racute" unicode="&#x154;" horiz-adv-x="647" 
d="M239 767q65 99 93 170h159q-90 -108 -163 -170h-89zM209 358h130q118 0 118 118q0 117 -118 117h-130v-235zM209 0h-132v696h285q105 0 166.5 -61.5t61.5 -156.5q0 -72 -39 -129.5t-109 -80.5l166 -268h-151l-159 256h-89v-256z" />
    <glyph glyph-name="racute" unicode="&#x155;" horiz-adv-x="412" 
d="M166 593q65 99 93 170h159q-90 -108 -163 -170h-89zM205 0h-132v522h129v-94q23 48 62.5 75t87.5 27q30 0 50 -9l-13 -115q-33 8 -55 7q-81 0 -129 -57v-356z" />
    <glyph glyph-name="Rcommaaccent" unicode="&#x156;" horiz-adv-x="647" 
d="M209 358h130q118 0 118 118q0 117 -118 117h-130v-235zM209 0h-132v696h285q105 0 166.5 -61.5t61.5 -156.5q0 -72 -39 -129.5t-109 -80.5l166 -268h-151l-159 256h-89v-256zM198 -251q37 84 62 174h157q-47 -82 -131 -174h-88z" />
    <glyph glyph-name="rcommaaccent" unicode="&#x157;" horiz-adv-x="412" 
d="M205 0h-132v522h129v-94q23 48 62.5 75t87.5 27q30 0 50 -9l-13 -115q-33 8 -55 7q-81 0 -129 -57v-356zM10 -251q37 84 62 174h157q-47 -82 -131 -174h-88z" />
    <glyph glyph-name="Rcaron" unicode="&#x158;" horiz-adv-x="647" 
d="M275 772q-61 71 -146 135l44 57q70 -35 154 -95q68 54 152 95l44 -57q-83 -65 -145 -135h-103zM209 358h130q118 0 118 118q0 117 -118 117h-130v-235zM209 0h-132v696h285q105 0 166.5 -61.5t61.5 -156.5q0 -72 -39 -129.5t-109 -80.5l166 -268h-151l-159 256h-89v-256z
" />
    <glyph glyph-name="rcaron" unicode="&#x159;" horiz-adv-x="412" 
d="M204 599q-62 71 -146 134l44 58q83 -44 154 -96q66 52 152 96l44 -58q-78 -60 -145 -134h-103zM205 0h-132v522h129v-94q23 48 62.5 75t87.5 27q30 0 50 -9l-13 -115q-33 8 -55 7q-81 0 -129 -57v-356z" />
    <glyph glyph-name="Sacute" unicode="&#x15a;" horiz-adv-x="628" 
d="M236 767q65 99 93 170h159q-90 -108 -163 -170h-89zM300 -7q-152 0 -253 98l50 94q89 -89 214 -89q133 0 133 90q0 43 -33 65.5t-129 43.5q-115 24 -166 69.5t-51 128.5q0 93 64.5 151t175.5 58q149 0 239 -90l-44 -91q-89 80 -187 80q-117 0 -117 -87q0 -41 31 -64
t126 -43q118 -26 170 -74t52 -132q0 -96 -73 -152t-202 -56z" />
    <glyph glyph-name="sacute" unicode="&#x15b;" horiz-adv-x="511" 
d="M181 593q62 93 93 170h159q-90 -108 -163 -170h-89zM260 -9q-123 0 -217 65l44 85q78 -55 174 -55q38 0 61.5 14t23.5 42t-19 40t-69 20q-102 15 -152 52.5t-50 111.5q0 75 56.5 120.5t140.5 45.5q107 0 196 -58l-44 -85q-76 47 -150 47q-34 0 -55 -13.5t-21 -40.5
t19 -39.5t68 -21.5q107 -15 155 -53t48 -110q0 -78 -59.5 -122.5t-149.5 -44.5z" />
    <glyph glyph-name="Scircumflex" unicode="&#x15c;" horiz-adv-x="628" 
d="M165 764l-45 58q81 63 145 134h103q65 -72 146 -134l-43 -57q-90 42 -155 94q-70 -56 -151 -95zM300 -7q-152 0 -253 98l50 94q89 -89 214 -89q133 0 133 90q0 43 -33 65.5t-129 43.5q-115 24 -166 69.5t-51 128.5q0 93 64.5 151t175.5 58q149 0 239 -90l-44 -91
q-89 80 -187 80q-117 0 -117 -87q0 -41 31 -64t126 -43q118 -26 170 -74t52 -132q0 -96 -73 -152t-202 -56z" />
    <glyph glyph-name="scircumflex" unicode="&#x15d;" horiz-adv-x="511" 
d="M120 590l-45 58q81 63 146 135h102q62 -70 147 -135l-44 -57q-90 42 -155 94q-66 -54 -151 -95zM260 -9q-123 0 -217 65l44 85q78 -55 174 -55q38 0 61.5 14t23.5 42t-19 40t-69 20q-102 15 -152 52.5t-50 111.5q0 75 56.5 120.5t140.5 45.5q107 0 196 -58l-44 -85
q-76 47 -150 47q-34 0 -55 -13.5t-21 -40.5t19 -39.5t68 -21.5q107 -15 155 -53t48 -110q0 -78 -59.5 -122.5t-149.5 -44.5z" />
    <glyph glyph-name="Scedilla" unicode="&#x15e;" horiz-adv-x="628" 
d="M322 -193q-102 0 -148 67l64 51q27 -40 79 -40q48 0 48 32q0 18 -19.5 26t-66.5 8v42q-140 7 -232 98l50 94q89 -89 214 -89q133 0 133 90q0 43 -33 65.5t-129 43.5q-115 24 -166 69.5t-51 128.5q0 93 64.5 151t175.5 58q149 0 239 -90l-44 -91q-89 80 -187 80
q-117 0 -117 -87q0 -41 31 -64t126 -43q118 -26 170 -74t52 -132t-57 -138t-158 -67v-9q50 -4 81.5 -26.5t31.5 -59.5q0 -47 -44 -70.5t-107 -23.5z" />
    <glyph glyph-name="scedilla" unicode="&#x15f;" horiz-adv-x="511" 
d="M265 -193q-102 0 -148 67l64 51q27 -40 79 -40q48 0 48 32q0 18 -19 26t-66 8v42q-103 9 -180 63l44 85q78 -55 174 -55q38 0 61.5 14t23.5 42t-19 40t-69 20q-102 15 -152 52.5t-50 111.5q0 75 56.5 120.5t140.5 45.5q107 0 196 -58l-44 -85q-76 47 -150 47
q-34 0 -55 -13.5t-21 -40.5t19 -39.5t68 -21.5q107 -15 155 -53t48 -110q0 -69 -46 -111.5t-120 -52.5v-7q50 -4 81.5 -26.5t31.5 -59.5q0 -47 -44 -70.5t-107 -23.5z" />
    <glyph glyph-name="Scaron" unicode="&#x160;" horiz-adv-x="628" 
d="M262 772q-65 74 -146 135l44 57q73 -37 154 -95q67 53 151 95l45 -57q-80 -61 -145 -135h-103zM300 -7q-152 0 -253 98l50 94q89 -89 214 -89q133 0 133 90q0 43 -33 65.5t-129 43.5q-115 24 -166 69.5t-51 128.5q0 93 64.5 151t175.5 58q149 0 239 -90l-44 -91
q-89 80 -187 80q-117 0 -117 -87q0 -41 31 -64t126 -43q118 -26 170 -74t52 -132q0 -96 -73 -152t-202 -56z" />
    <glyph glyph-name="scaron" unicode="&#x161;" horiz-adv-x="511" 
d="M222 599q-64 72 -147 134l44 58q84 -44 154 -96q66 52 152 96l45 -58q-81 -62 -146 -134h-102zM260 -9q-123 0 -217 65l44 85q78 -55 174 -55q38 0 61.5 14t23.5 42t-19 40t-69 20q-102 15 -152 52.5t-50 111.5q0 75 56.5 120.5t140.5 45.5q107 0 196 -58l-44 -85
q-76 47 -150 47q-34 0 -55 -13.5t-21 -40.5t19 -39.5t68 -21.5q107 -15 155 -53t48 -110q0 -78 -59.5 -122.5t-149.5 -44.5z" />
    <glyph glyph-name="Tcedilla" unicode="&#x162;" horiz-adv-x="570" 
d="M283 -193q-102 0 -149 67l64 51q27 -40 79 -40q48 0 48 32q0 18 -19 26t-66 8v49h-22v593h-188v103h510v-103h-188v-593h-32v-13q50 -4 81.5 -26.5t31.5 -59.5q0 -47 -44 -70.5t-106 -23.5z" />
    <glyph glyph-name="tcedilla" unicode="&#x163;" horiz-adv-x="438" 
d="M270 -193q-102 0 -148 67l64 51q27 -40 79 -40q48 0 48 32q0 18 -19 26t-66 8v49q-112 32 -112 171v253h-91v98h91v144h132v-144h148v-98h-148v-241q0 -92 67 -92q29 0 72 16l15 -95q-42 -18 -94 -21v-4q50 -4 81.5 -26.5t31.5 -59.5q0 -47 -44 -70.5t-107 -23.5z" />
    <glyph glyph-name="Tcaron" unicode="&#x164;" horiz-adv-x="570" 
d="M235 772q-63 72 -147 135l44 57q73 -37 155 -95q66 53 151 95l45 -57q-83 -63 -146 -135h-102zM218 0v593h-188v103h510v-103h-188v-593h-134z" />
    <glyph glyph-name="tcaron" unicode="&#x165;" horiz-adv-x="438" 
d="M329 609q29 105 37 226h115q-19 -129 -88 -226h-64zM297 -9q-88 0 -134.5 46t-46.5 134v253h-91v98h91v144h132v-144h148v-98h-148v-241q0 -92 67 -92q29 0 72 16l15 -95q-48 -21 -105 -21z" />
    <glyph glyph-name="Tbar" unicode="&#x166;" horiz-adv-x="570" 
d="M486 264h-134v-264h-134v264h-134v89h134v240h-188v103h510v-103h-188v-240h134v-89z" />
    <glyph glyph-name="tbar" unicode="&#x167;" horiz-adv-x="438" 
d="M402 12q-48 -21 -105 -21q-88 0 -134.5 46t-46.5 134v63h-91v88h91v102h-91v98h91v144h132v-144h148v-98h-148v-102h150v-88h-150v-51q0 -92 67 -92q29 0 72 16z" />
    <glyph glyph-name="Utilde" unicode="&#x168;" horiz-adv-x="677" 
d="M414 774q-54 0 -89 47q-2 2 -8 10.5t-8.5 11.5t-8 8.5t-9 8t-8.5 4.5t-10 2q-34 0 -33 -71v-11h-91v13q0 70 33 114.5t88 44.5q32 0 51 -11.5t39 -34.5q2 -3 10 -13.5t10.5 -14t8.5 -9.5t11 -8t11 -2q34 0 33 72v12h90v-13q0 -72 -32.5 -116t-87.5 -44zM338 -9
q-129 0 -197.5 73.5t-68.5 194.5v437h132v-429q0 -167 135 -167t135 167v429h132v-437q0 -119 -71 -193.5t-197 -74.5z" />
    <glyph glyph-name="utilde" unicode="&#x169;" 
d="M368 601q-53 0 -89 46q-1 2 -5.5 7.5t-6 7.5t-5 6.5t-5.5 6.5t-5 5.5t-5.5 5t-6 3.5t-6.5 2.5t-6 0.5q-35 0 -34 -71v-11h-90v13q0 71 32.5 115.5t88.5 44.5q50 0 89 -47q2 -3 7 -10t7.5 -10t7 -8.5t7.5 -8t7 -5.5t7.5 -4t7.5 -1q34 0 33 72v12h90v-13q0 -71 -32.5 -115
t-87.5 -44zM388 522h132v-523h-129v90q-51 -99 -167 -99q-73 0 -115 47t-42 129v356h133v-336q0 -44 18.5 -67.5t52.5 -23.5q68 0 117 81v346z" />
    <glyph glyph-name="Umacron" unicode="&#x16a;" horiz-adv-x="677" 
d="M172 803v99h339v-99h-339zM338 -9q-129 0 -197.5 73.5t-68.5 194.5v437h132v-429q0 -167 135 -167t135 167v429h132v-437q0 -119 -71 -193.5t-197 -74.5z" />
    <glyph glyph-name="umacron" unicode="&#x16b;" 
d="M126 629v100h339v-100h-339zM388 522h132v-523h-129v90q-51 -99 -167 -99q-73 0 -115 47t-42 129v356h133v-336q0 -44 18.5 -67.5t52.5 -23.5q68 0 117 81v346z" />
    <glyph glyph-name="Ubreve" unicode="&#x16c;" horiz-adv-x="677" 
d="M341 767q-196 0 -197 190h106q1 -61 21.5 -84.5t69.5 -23.5q50 0 70.5 23.5t21.5 84.5h106q-1 -190 -198 -190zM338 -9q-129 0 -197.5 73.5t-68.5 194.5v437h132v-429q0 -167 135 -167t135 167v429h132v-437q0 -119 -71 -193.5t-197 -74.5z" />
    <glyph glyph-name="ubreve" unicode="&#x16d;" 
d="M296 593q-196 0 -197 191h105q1 -61 21.5 -85t70.5 -24q49 0 69.5 24t21.5 85h106q-1 -191 -197 -191zM388 522h132v-523h-129v90q-51 -99 -167 -99q-73 0 -115 47t-42 129v356h133v-336q0 -44 18.5 -67.5t52.5 -23.5q68 0 117 81v346z" />
    <glyph glyph-name="Uring" unicode="&#x16e;" horiz-adv-x="677" 
d="M341 759q-70 0 -112 37t-42 105q0 67 42 105t112 38q71 0 113 -38t42 -105q0 -68 -42 -105t-113 -37zM341 826q62 0 62 75q0 35 -16 55.5t-46 20.5t-46 -20.5t-16 -55.5q0 -75 62 -75zM338 -9q-129 0 -197.5 73.5t-68.5 194.5v437h132v-429q0 -167 135 -167t135 167v429
h132v-437q0 -119 -71 -193.5t-197 -74.5z" />
    <glyph glyph-name="uring" unicode="&#x16f;" 
d="M296 585q-71 0 -113 37.5t-42 105.5q0 67 42 104.5t113 37.5q70 0 112 -37.5t42 -104.5q0 -68 -41.5 -105.5t-112.5 -37.5zM296 652q62 0 62 76q0 34 -16 54.5t-46 20.5t-46 -20t-16 -55q0 -76 62 -76zM388 522h132v-523h-129v90q-51 -99 -167 -99q-73 0 -115 47t-42 129
v356h133v-336q0 -44 18.5 -67.5t52.5 -23.5q68 0 117 81v346z" />
    <glyph glyph-name="Uhungarumlaut" unicode="&#x170;" horiz-adv-x="677" 
d="M212 767q31 88 47 170h129q-34 -68 -105 -170h-71zM389 767q32 90 47 170h128q-36 -77 -106 -170h-69zM338 -9q-129 0 -197.5 73.5t-68.5 194.5v437h132v-429q0 -167 135 -167t135 167v429h132v-437q0 -119 -71 -193.5t-197 -74.5z" />
    <glyph glyph-name="uhungarumlaut" unicode="&#x171;" 
d="M155 593q31 88 47 170h129q-34 -68 -105 -170h-71zM332 593q32 90 47 170h128q-36 -77 -106 -170h-69zM388 522h132v-523h-129v90q-51 -99 -167 -99q-73 0 -115 47t-42 129v356h133v-336q0 -44 18.5 -67.5t52.5 -23.5q68 0 117 81v346z" />
    <glyph glyph-name="Uogonek" unicode="&#x172;" horiz-adv-x="677" 
d="M400 -191q-64 0 -100.5 27t-36.5 77q0 41 32 80q-109 13 -166 84.5t-57 181.5v437h132v-429q0 -167 135 -167t135 167v429h132v-437q0 -110 -60.5 -182.5t-168.5 -83.5q-20 -24 -20 -52q0 -48 65 -48q22 0 69 9l-1 -83q-44 -10 -90 -10z" />
    <glyph glyph-name="uogonek" unicode="&#x173;" 
d="M564 -181q-43 -10 -89 -10q-65 0 -101.5 27t-36.5 77q0 56 54 103v73q-51 -99 -167 -99q-73 0 -115 47t-42 129v356h133v-336q0 -44 18.5 -67.5t52.5 -23.5q68 0 117 81v346h132v-523h-64q-25 -28 -25 -58q0 -48 65 -48q24 0 69 9z" />
    <glyph glyph-name="Wcircumflex" unicode="&#x174;" horiz-adv-x="869" 
d="M282 764l-45 58q76 59 145 134h103q60 -69 146 -134l-44 -57q-87 41 -154 94q-68 -54 -151 -95zM566 0l-124 432l-124 -432h-130l-159 696h134l98 -520l124 450h114l126 -449l99 519h132l-160 -696h-130z" />
    <glyph glyph-name="wcircumflex" unicode="&#x175;" horiz-adv-x="742" 
d="M212 590l-44 58q78 60 145 135h103q59 -69 146 -135l-44 -57q-87 41 -154 94q-68 -55 -152 -95zM460 0l-90 303l-88 -303h-120l-134 522h119l81 -356l92 316h102l95 -317l82 357h114l-133 -522h-120z" />
    <glyph glyph-name="Ycircumflex" unicode="&#x176;" horiz-adv-x="624" 
d="M160 764l-45 58q76 59 145 134h103q60 -69 146 -134l-44 -57q-89 42 -154 94q-68 -54 -151 -95zM378 0h-133v261l-230 435h139l161 -325l160 325h134l-231 -435v-261z" />
    <glyph glyph-name="ycircumflex" unicode="&#x177;" horiz-adv-x="528" 
d="M100 590l-45 58q83 64 145 135h103q64 -72 146 -135l-44 -57q-89 42 -154 94q-68 -54 -151 -95zM129 -183q-36 0 -91 10l9 98q34 -10 65 -10q38 0 58.5 22.5t34.5 67.5l5 14l-190 503h131l118 -351l114 351h127l-204 -558q-29 -78 -71.5 -112.5t-105.5 -34.5z" />
    <glyph glyph-name="Ydieresis" unicode="&#x178;" horiz-adv-x="624" 
d="M408 770q-30 0 -49 18.5t-19 50.5q0 33 19 52.5t49 19.5t49 -19.5t19 -52.5q0 -31 -19.5 -50t-48.5 -19zM215 770q-30 0 -48.5 18.5t-18.5 50.5q0 33 18.5 52.5t48.5 19.5t49 -19.5t19 -52.5q0 -32 -19 -50.5t-49 -18.5zM378 0h-133v261l-230 435h139l161 -325l160 325
h134l-231 -435v-261z" />
    <glyph glyph-name="Zacute" unicode="&#x179;" horiz-adv-x="597" 
d="M204 767q62 91 94 170h158q-86 -106 -162 -170h-90zM546 0h-495v103l334 490h-334v103h495v-103l-342 -490h342v-103z" />
    <glyph glyph-name="zacute" unicode="&#x17a;" horiz-adv-x="493" 
d="M177 593q65 99 93 170h159q-90 -108 -163 -170h-89zM443 0h-393v99l248 325h-248v98h393v-98l-244 -325h244v-99z" />
    <glyph glyph-name="Zdotaccent" unicode="&#x17b;" horiz-adv-x="597" 
d="M299 770q-36 0 -58.5 18.5t-22.5 50.5q0 33 22.5 52.5t58.5 19.5t58 -19.5t22 -52.5q0 -32 -22.5 -50.5t-57.5 -18.5zM546 0h-495v103l334 490h-334v103h495v-103l-342 -490h342v-103z" />
    <glyph glyph-name="zdotaccent" unicode="&#x17c;" horiz-adv-x="493" 
d="M275 597q-35 0 -57.5 18.5t-22.5 50.5t22.5 51.5t57.5 19.5q36 0 58.5 -19t22.5 -52q0 -32 -22.5 -50.5t-58.5 -18.5zM443 0h-393v99l248 325h-248v98h393v-98l-244 -325h244v-99z" />
    <glyph glyph-name="Zcaron" unicode="&#x17d;" horiz-adv-x="597" 
d="M248 772q-62 70 -146 135l43 57q73 -37 155 -95q69 55 151 95l45 -57q-84 -64 -145 -135h-103zM546 0h-495v103l334 490h-334v103h495v-103l-342 -490h342v-103z" />
    <glyph glyph-name="zcaron" unicode="&#x17e;" horiz-adv-x="493" 
d="M225 599q-64 72 -147 134l44 58q84 -44 154 -96q66 52 152 96l45 -58q-81 -62 -146 -134h-102zM443 0h-393v99l248 325h-248v98h393v-98l-244 -325h244v-99z" />
    <glyph glyph-name="florin" unicode="&#x192;" horiz-adv-x="607" 
d="M183 -4q-76 5 -118 19l16 91q42 -18 83 -18q38 0 55.5 21.5t17.5 69.5v173h-162v97h162v104q0 76 50.5 120.5t136.5 44.5q66 0 117 -20l-16 -89q-49 17 -82 17q-39 0 -56 -21t-17 -70v-86h164v-97h-164v-191q0 -75 -50.5 -120t-136.5 -45z" />
    <glyph glyph-name="Aringacute" unicode="&#x1fa;" horiz-adv-x="647" 
d="M323 739q-70 0 -112 37t-42 105q0 54 28 89.5t77 47.5q56 85 85 156h158q-77 -94 -146 -156q50 -11 78.5 -47t28.5 -90q0 -68 -42 -105t-113 -37zM323 806q62 0 62 75q0 35 -16 55t-46 20t-46 -20t-16 -55q0 -75 62 -75zM407 270l-89 287l-88 -287h177zM491 0l-52 168
h-241l-52 -168h-124l238 696h129l237 -696h-135z" />
    <glyph glyph-name="aringacute" unicode="&#x1fb;" horiz-adv-x="559" 
d="M271 585q-71 0 -112.5 37.5t-41.5 105.5q0 55 29 90.5t81 46.5q57 88 86 159h159q-86 -103 -152 -160q50 -11 78 -46.5t28 -89.5q0 -68 -42 -105.5t-113 -37.5zM271 652q62 0 62 76q0 35 -16 55t-46 20q-29 0 -45.5 -20.5t-16.5 -54.5q0 -76 62 -76zM245 79q55 0 99 46
v97h-99q-35 0 -56 -17t-21 -52q0 -74 77 -74zM536 2q-58 -16 -105 1.5t-59 64.5q-67 -77 -171 -77q-72 0 -115.5 41t-43.5 113q0 73 49.5 114t134.5 41h116v50q0 43 -22 66.5t-63 23.5q-39 0 -63.5 -19t-43.5 -64l-95 50q57 125 210 125q91 0 148.5 -46.5t57.5 -130.5v-223
q0 -59 65 -41v-89z" />
    <glyph glyph-name="AEacute" unicode="&#x1fc;" horiz-adv-x="908" 
d="M474 767q65 99 93 170h159q-90 -108 -163 -170h-89zM346 593l-106 -309h185v309h-79zM425 181h-219l-61 -181h-123l247 696h563v-103h-275v-169h236v-103h-236v-218h275v-103h-407v181z" />
    <glyph glyph-name="aeacute" unicode="&#x1fd;" horiz-adv-x="835" 
d="M326 593q62 91 94 170h158q-92 -111 -162 -170h-90zM565 440q-46 0 -70 -30t-29 -100h186q-1 130 -87 130zM771 76q-70 -85 -195 -85q-117 0 -177 82q-91 -82 -192 -82q-75 0 -120 41t-45 112q0 74 49.5 115t135.5 41h115v50q0 43 -22 66.5t-63 23.5q-40 0 -64 -18.5
t-44 -63.5l-93 50q54 124 209 124q100 0 154 -56q58 56 146 56q98 0 155.5 -66t57.5 -184v-58h-312q6 -73 34.5 -106.5t81.5 -33.5q67 0 120 62zM241 79q32 0 64 21t56 51q-11 39 -13 71h-103q-76 0 -76 -70q0 -73 72 -73z" />
    <glyph glyph-name="Oslashacute" unicode="&#x1fe;" horiz-adv-x="685" 
d="M247 767q62 93 93 170h159q-90 -108 -163 -170h-89zM186 355q0 -143 39 -203l164 445q-21 6 -47 6q-80 0 -118 -57.5t-38 -190.5zM342 95q81 0 118.5 59t37.5 203q0 139 -43 195l-166 -450q22 -7 53 -7zM342 -9q-44 0 -83 9l-32 -87h-95l45 123q-123 84 -123 320
q0 173 76 261t213 88q43 0 77 -7l31 86h96l-44 -120q128 -81 128 -307q0 -185 -75 -275.5t-214 -90.5z" />
    <glyph glyph-name="oslashacute" unicode="&#x1ff;" horiz-adv-x="590" 
d="M207 593q62 91 94 170h158q-86 -106 -162 -170h-90zM177 261q0 -83 22 -124l131 288q-19 8 -43 8q-58 0 -84 -41t-26 -131zM287 89q58 0 83.5 40t25.5 131q0 76 -17 116l-130 -282q18 -5 38 -5zM287 -9q-39 0 -74 9l-40 -87h-84l56 119q-94 69 -94 229q0 132 64.5 201.5
t172.5 69.5q42 0 80 -12l42 90h83l-58 -126q88 -69 88 -223q0 -133 -64 -201.5t-172 -68.5z" />
    <glyph glyph-name="Scommaaccent" unicode="&#x218;" horiz-adv-x="628" 
d="M300 -7q-152 0 -253 98l50 94q89 -89 214 -89q133 0 133 90q0 43 -33 65.5t-129 43.5q-115 24 -166 69.5t-51 128.5q0 93 64.5 151t175.5 58q149 0 239 -90l-44 -91q-89 80 -187 80q-117 0 -117 -87q0 -41 31 -64t126 -43q118 -26 170 -74t52 -132q0 -96 -73 -152
t-202 -56zM186 -251q40 93 62 174h156q-46 -82 -131 -174h-87z" />
    <glyph glyph-name="scommaaccent" unicode="&#x219;" horiz-adv-x="511" 
d="M260 -9q-123 0 -217 65l44 85q78 -55 174 -55q38 0 61.5 14t23.5 42t-19 40t-69 20q-102 15 -152 52.5t-50 111.5q0 75 56.5 120.5t140.5 45.5q107 0 196 -58l-44 -85q-76 47 -150 47q-34 0 -55 -13.5t-21 -40.5t19 -39.5t68 -21.5q107 -15 155 -53t48 -110
q0 -78 -59.5 -122.5t-149.5 -44.5zM126 -251q40 93 62 174h157q-48 -84 -132 -174h-87z" />
    <glyph glyph-name="Tcommaaccent" unicode="&#x21a;" horiz-adv-x="570" 
d="M218 0v593h-188v103h510v-103h-188v-593h-134zM145 -251q37 84 62 174h157q-50 -86 -131 -174h-88z" />
    <glyph glyph-name="tcommaaccent" unicode="&#x21b;" horiz-adv-x="438" 
d="M297 -9q-88 0 -134.5 46t-46.5 134v253h-91v98h91v144h132v-144h148v-98h-148v-241q0 -92 67 -92q29 0 72 16l15 -95q-48 -21 -105 -21zM144 -251q37 84 62 174h157q-50 -86 -131 -174h-88z" />
    <glyph glyph-name="dotlessj" unicode="&#x237;" horiz-adv-x="298" 
d="M40 -182q-43 0 -102 19l15 93q47 -18 71 -18q63 0 63 83v527h135v-534q0 -83 -51.5 -126.5t-130.5 -43.5z" />
    <glyph glyph-name="uni02BB" unicode="&#x2bb;" horiz-adv-x="307" 
d="M248 696q-39 -158 -48 -298h-139q12 98 40.5 165t76.5 133h70z" />
    <glyph glyph-name="uni02BC" unicode="&#x2bc;" horiz-adv-x="307" 
d="M55 398q40 156 49 298h139q-13 -97 -41.5 -164.5t-76.5 -133.5h-70z" />
    <glyph glyph-name="circumflex" unicode="&#x2c6;" horiz-adv-x="535" 
d="M114 590l-45 58q83 64 145 135h103q60 -69 146 -135l-43 -57q-90 42 -155 94q-66 -54 -151 -95z" />
    <glyph glyph-name="caron" unicode="&#x2c7;" horiz-adv-x="535" 
d="M215 599q-62 71 -146 134l44 58q79 -41 154 -96q66 52 152 96l44 -58q-82 -64 -145 -134h-103z" />
    <glyph glyph-name="uni02C9" unicode="&#x2c9;" horiz-adv-x="535" 
d="M97 629v100h339v-100h-339z" />
    <glyph glyph-name="breve" unicode="&#x2d8;" horiz-adv-x="535" 
d="M266 593q-196 0 -197 191h106q1 -61 21.5 -85t69.5 -24q50 0 70.5 24t21.5 85h105q-1 -191 -197 -191z" />
    <glyph glyph-name="dotaccent" unicode="&#x2d9;" horiz-adv-x="333" 
d="M166 597q-36 0 -58.5 18.5t-22.5 50.5q0 33 22.5 52t58.5 19q35 0 57.5 -19.5t22.5 -51.5t-22.5 -50.5t-57.5 -18.5z" />
    <glyph glyph-name="ring" unicode="&#x2da;" horiz-adv-x="535" 
d="M266 585q-71 0 -112.5 37.5t-41.5 105.5q0 67 42 104.5t112 37.5q71 0 113 -37.5t42 -104.5q0 -68 -42 -105.5t-113 -37.5zM266 652q62 0 62 76q0 35 -16 55t-46 20t-46 -20.5t-16 -54.5q0 -76 62 -76z" />
    <glyph glyph-name="ogonek" unicode="&#x2db;" horiz-adv-x="535" 
d="M301 -191q-65 0 -101 27t-36 77q0 48 36.5 86.5t83.5 55.5l21 -35q-48 -38 -48 -79q0 -48 65 -48q24 0 69 9l-1 -83q-43 -10 -89 -10z" />
    <glyph glyph-name="tilde" unicode="&#x2dc;" horiz-adv-x="535" 
d="M338 601q-54 0 -88 46q-12 17 -17 23t-15.5 14t-19.5 8q-34 0 -33 -71v-11h-91v13q0 70 33 115t88 45q32 0 51 -12t39 -35q2 -3 9.5 -13.5t10.5 -14t9 -9.5t11 -8t10 -2q35 0 34 72v12h89v-13q0 -71 -32 -115t-88 -44z" />
    <glyph glyph-name="hungarumlaut" unicode="&#x2dd;" horiz-adv-x="535" 
d="M126 593q33 99 47 170h129q-40 -78 -106 -170h-70zM303 593q30 91 47 170h128q-40 -82 -106 -170h-69z" />
    <glyph glyph-name="gravecmb" unicode="&#x300;" horiz-adv-x="0" 
d="M-4 593q-71 60 -164 170h157q20 -48 94 -170h-87z" />
    <glyph glyph-name="acutecmb" unicode="&#x301;" horiz-adv-x="0" 
d="M-99 593q65 96 94 170h158q-86 -106 -162 -170h-90z" />
    <glyph glyph-name="circumflexcmb" unicode="&#x302;" horiz-adv-x="0" 
d="M-152 590l-45 58q78 60 145 135h103q59 -69 146 -135l-44 -57q-89 42 -154 94q-68 -54 -151 -95z" />
    <glyph glyph-name="tildecmb" unicode="&#x303;" horiz-adv-x="0" 
d="M72 601q-53 0 -88 46q-2 3 -7.5 9.5t-7.5 9.5t-6.5 8t-7.5 7.5t-7 5.5t-8 4t-8 1q-35 0 -34 -71v-11h-90v13q0 70 33 115t88 45q32 0 51 -12t38 -35q3 -4 10.5 -13.5t10.5 -13.5t9 -10t11 -8t10 -2q35 0 34 72v12h89v-13q0 -71 -32.5 -115t-87.5 -44z" />
    <glyph glyph-name="macroncmb" unicode="&#x304;" horiz-adv-x="0" 
d="M-170 629v100h340v-100h-340z" />
    <glyph glyph-name="brevecmb" unicode="&#x306;" horiz-adv-x="0" 
d="M0 593q-196 0 -197 191h106q1 -61 21.5 -85t69.5 -24t69.5 24t21.5 85h106q-1 -191 -197 -191z" />
    <glyph glyph-name="dotaccentcmb" unicode="&#x307;" horiz-adv-x="0" 
d="M0 597q-36 0 -58 18.5t-22 50.5q0 33 22 52t58 19t58 -19t22 -52q0 -32 -22.5 -50.5t-57.5 -18.5z" />
    <glyph glyph-name="dieresiscmb" unicode="&#x308;" horiz-adv-x="0" 
d="M96 597q-31 0 -49.5 18.5t-18.5 50.5q0 33 19 52t49 19t49 -19.5t19 -51.5t-19.5 -50.5t-48.5 -18.5zM-97 597q-30 0 -48.5 18.5t-18.5 50.5q0 33 18.5 52t48.5 19t49 -19t19 -52q0 -32 -19 -50.5t-49 -18.5z" />
    <glyph glyph-name="ringcmb" unicode="&#x30a;" horiz-adv-x="0" 
d="M0 585q-71 0 -112.5 37.5t-41.5 105.5q0 67 42 104.5t112 37.5t112 -37.5t42 -104.5q0 -68 -41.5 -105.5t-112.5 -37.5zM0 652q62 0 62 76q0 35 -16 55t-46 20t-46 -20t-16 -55q0 -76 62 -76z" />
    <glyph glyph-name="hungarumlautcmb" unicode="&#x30b;" horiz-adv-x="0" 
d="M-140 593q30 89 47 170h129q-40 -78 -106 -170h-70zM37 593q31 94 46 170h128q-35 -74 -105 -170h-69z" />
    <glyph glyph-name="caroncmb" unicode="&#x30c;" horiz-adv-x="0" 
d="M-51 599q-66 74 -146 134l44 58q83 -44 154 -96q65 51 151 96l45 -58q-78 -60 -145 -134h-103z" />
    <glyph glyph-name="commaturnedabovecmb" unicode="&#x312;" horiz-adv-x="0" 
d="M-103 600q51 86 131 173h88q-41 -91 -62 -173h-157z" />
    <glyph glyph-name="commaaccentcmb" unicode="&#x326;" horiz-adv-x="0" 
d="M-118 -251q37 84 62 174h157q-47 -82 -131 -174h-88z" />
    <glyph glyph-name="cedillacmb" unicode="&#x327;" horiz-adv-x="0" 
d="M4 -193q-102 0 -148 67l64 51q27 -40 79 -40q48 0 48 32q0 18 -19.5 26t-66.5 8v67h81v-31q50 -4 81 -26.5t31 -59.5q0 -47 -44 -70.5t-106 -23.5z" />
    <glyph glyph-name="ogonekcmb" unicode="&#x328;" horiz-adv-x="0" 
d="M35 -191q-65 0 -101.5 27t-36.5 77q0 48 36.5 86.5t83.5 55.5l22 -35q-48 -38 -48 -79q0 -48 65 -48q24 0 69 9l-1 -83q-44 -10 -89 -10z" />
    <glyph glyph-name="Wgrave" unicode="&#x1e80;" horiz-adv-x="869" 
d="M432 767q-71 60 -164 170h157q20 -48 94 -170h-87zM566 0l-124 432l-124 -432h-130l-159 696h134l98 -520l124 450h114l126 -449l99 519h132l-160 -696h-130z" />
    <glyph glyph-name="wgrave" unicode="&#x1e81;" horiz-adv-x="742" 
d="M361 593q-71 60 -164 170h157q20 -48 94 -170h-87zM460 0l-90 303l-88 -303h-120l-134 522h119l81 -356l92 316h102l95 -317l82 357h114l-133 -522h-120z" />
    <glyph glyph-name="Wacute" unicode="&#x1e82;" horiz-adv-x="869" 
d="M345 767q65 99 93 170h159q-90 -108 -163 -170h-89zM566 0l-124 432l-124 -432h-130l-159 696h134l98 -520l124 450h114l126 -449l99 519h132l-160 -696h-130z" />
    <glyph glyph-name="wacute" unicode="&#x1e83;" horiz-adv-x="742" 
d="M266 593q62 91 94 170h158q-86 -106 -162 -170h-90zM460 0l-90 303l-88 -303h-120l-134 522h119l81 -356l92 316h102l95 -317l82 357h114l-133 -522h-120z" />
    <glyph glyph-name="Wdieresis" unicode="&#x1e84;" horiz-adv-x="869" 
d="M530 770q-30 0 -48.5 18.5t-18.5 50.5q0 33 18.5 52.5t48.5 19.5q31 0 50 -19.5t19 -52.5q0 -32 -19.5 -50.5t-49.5 -18.5zM338 770q-30 0 -48.5 18.5t-18.5 50.5q0 33 18.5 52.5t48.5 19.5t48.5 -19.5t18.5 -52.5q0 -32 -18.5 -50.5t-48.5 -18.5zM566 0l-124 432
l-124 -432h-130l-159 696h134l98 -520l124 450h114l126 -449l99 519h132l-160 -696h-130z" />
    <glyph glyph-name="wdieresis" unicode="&#x1e85;" horiz-adv-x="742" 
d="M460 597q-30 0 -48.5 18.5t-18.5 50.5q0 33 18.5 52t48.5 19t49 -19t19 -52q0 -32 -19 -50.5t-49 -18.5zM268 597q-30 0 -48.5 18.5t-18.5 50.5q0 33 18.5 52t48.5 19t48.5 -19t18.5 -52q0 -32 -18.5 -50.5t-48.5 -18.5zM460 0l-90 303l-88 -303h-120l-134 522h119
l81 -356l92 316h102l95 -317l82 357h114l-133 -522h-120z" />
    <glyph glyph-name="Ygrave" unicode="&#x1ef2;" horiz-adv-x="624" 
d="M308 767q-71 60 -164 170h157q20 -48 94 -170h-87zM378 0h-133v261l-230 435h139l161 -325l160 325h134l-231 -435v-261z" />
    <glyph glyph-name="ygrave" unicode="&#x1ef3;" horiz-adv-x="528" 
d="M248 593q-71 60 -164 170h157q20 -48 94 -170h-87zM129 -183q-36 0 -91 10l9 98q34 -10 65 -10q38 0 58.5 22.5t34.5 67.5l5 14l-190 503h131l118 -351l114 351h127l-204 -558q-29 -78 -71.5 -112.5t-105.5 -34.5z" />
    <glyph glyph-name="uni2000" unicode="&#x2000;" horiz-adv-x="465" 
 />
    <glyph glyph-name="uni2001" unicode="&#x2001;" horiz-adv-x="944" 
 />
    <glyph glyph-name="uni2002" unicode="&#x2002;" horiz-adv-x="465" 
 />
    <glyph glyph-name="uni2003" unicode="&#x2003;" horiz-adv-x="944" 
 />
    <glyph glyph-name="uni2004" unicode="&#x2004;" horiz-adv-x="305" 
 />
    <glyph glyph-name="uni2005" unicode="&#x2005;" horiz-adv-x="226" 
 />
    <glyph glyph-name="uni2007" unicode="&#x2007;" horiz-adv-x="691" 
 />
    <glyph glyph-name="uni2009" unicode="&#x2009;" horiz-adv-x="146" 
 />
    <glyph glyph-name="uni200A" unicode="&#x200a;" horiz-adv-x="82" 
 />
    <glyph glyph-name="uni200B" unicode="&#x200b;" horiz-adv-x="0" 
 />
    <glyph glyph-name="endash" unicode="&#x2013;" horiz-adv-x="626" 
d="M67 252v106h492v-106h-492z" />
    <glyph glyph-name="emdash" unicode="&#x2014;" horiz-adv-x="926" 
d="M81 251v113h764v-113h-764z" />
    <glyph glyph-name="horizontalbar" unicode="&#x2015;" horiz-adv-x="763" 
d="M0 251v113h763v-113h-763z" />
    <glyph glyph-name="quoteleft" unicode="&#x2018;" horiz-adv-x="307" 
d="M248 696q-39 -158 -48 -298h-139q12 98 40.5 165t76.5 133h70z" />
    <glyph glyph-name="quoteright" unicode="&#x2019;" horiz-adv-x="307" 
d="M55 398q40 156 49 298h139q-13 -97 -41.5 -164.5t-76.5 -133.5h-70z" />
    <glyph glyph-name="quotesinglbase" unicode="&#x201a;" horiz-adv-x="316" 
d="M55 -135q40 164 49 298h139q-12 -98 -41 -165t-77 -133h-70z" />
    <glyph glyph-name="quotereversed" unicode="&#x201b;" horiz-adv-x="340" 
d="M250 398h-70q-51 72 -78 134.5t-40 163.5h140q11 -163 48 -298z" />
    <glyph glyph-name="quotedblleft" unicode="&#x201c;" horiz-adv-x="538" 
d="M248 696q-37 -141 -48 -298h-140q13 102 40 164.5t78 133.5h70zM480 696q-38 -140 -49 -298h-140q13 102 40 164.5t78 133.5h71z" />
    <glyph glyph-name="quotedblright" unicode="&#x201d;" horiz-adv-x="538" 
d="M286 398q23 86 32.5 147.5t14.5 150.5h141q-13 -102 -40 -165t-78 -133h-70zM55 398q37 141 48 298h140q-13 -101 -40 -163.5t-78 -134.5h-70z" />
    <glyph glyph-name="quotedblbase" unicode="&#x201e;" horiz-adv-x="547" 
d="M286 -133q23 86 32.5 147.5t14.5 150.5h141q-13 -102 -40 -165.5t-78 -132.5h-70zM55 -133q37 141 48 298h140q-13 -102 -40 -164.5t-78 -133.5h-70z" />
    <glyph glyph-name="dagger" unicode="&#x2020;" horiz-adv-x="699" 
d="M284 -174v595h-103l-33 -187h-93l24 288h203l-7 174h149l-5 -174h202l23 -288h-93l-32 187h-103v-595h-132z" />
    <glyph glyph-name="daggerdbl" unicode="&#x2021;" horiz-adv-x="707" 
d="M279 -174l7 161h-207l-24 213h93l33 -112h107v346h-107l-33 -112h-93l24 214h207l-7 160h149l-5 -160h205l24 -214h-93l-32 112h-107v-346h107l32 112h93l-24 -213h-205l5 -161h-149z" />
    <glyph glyph-name="bullet" unicode="&#x2022;" horiz-adv-x="511" 
d="M256 205q-134 0 -134 146q0 139 134 139q133 0 133 -140q0 -145 -133 -145z" />
    <glyph glyph-name="ellipsis" unicode="&#x2026;" horiz-adv-x="993" 
d="M159 -5q-39 0 -62 23t-23 64q0 38 23 61t62 23q38 0 60.5 -23t22.5 -61q0 -41 -23 -64t-60 -23zM496 -5q-39 0 -62 23t-23 64q0 38 23.5 61t61.5 23t60.5 -23t22.5 -61q0 -41 -23 -64t-60 -23zM836 -5q-39 0 -62 23t-23 64q0 38 23 61t62 23q37 0 60 -23t23 -61
q0 -40 -23 -63.5t-60 -23.5z" />
    <glyph glyph-name="perthousand" unicode="&#x2030;" horiz-adv-x="1282" 
d="M218 328q-78 0 -123.5 48t-45.5 140q0 91 46 140t123 49q79 0 124.5 -48.5t45.5 -137.5q0 -94 -45.5 -142.5t-124.5 -48.5zM193 0l399 696h121l-398 -696h-122zM218 411q30 0 44.5 23.5t14.5 84.5q0 105 -59 105q-57 0 -57 -105q0 -61 14 -84.5t43 -23.5zM1063 -10
q-79 0 -124.5 48t-45.5 140q0 91 46 140t124 49t124 -48.5t46 -137.5q0 -94 -45.5 -142.5t-124.5 -48.5zM687 -10q-79 0 -124.5 48t-45.5 140q0 91 46 140t124 49q79 0 124.5 -48.5t45.5 -137.5q0 -94 -45.5 -142.5t-124.5 -48.5zM1063 72q29 0 44 24t15 85q0 106 -59 106
t-59 -106q0 -62 14.5 -85.5t44.5 -23.5zM687 72q30 0 44.5 24t14.5 85q0 106 -59 106t-59 -106q0 -62 14.5 -85.5t44.5 -23.5z" />
    <glyph glyph-name="minute" unicode="&#x2032;" horiz-adv-x="322" 
d="M45 398q38 151 48 298h140q-13 -97 -42 -165t-76 -133h-70z" />
    <glyph glyph-name="second" unicode="&#x2033;" horiz-adv-x="561" 
d="M286 398q23 86 32.5 147.5t14.5 150.5h141q-13 -102 -40 -165t-78 -133h-70zM55 398q37 141 48 298h140q-13 -101 -40 -163.5t-78 -134.5h-70z" />
    <glyph glyph-name="guilsinglleft" unicode="&#x2039;" horiz-adv-x="516" 
d="M405 50l-295 188v133l295 189v-120l-210 -135l210 -135v-120z" />
    <glyph glyph-name="guilsinglright" unicode="&#x203a;" horiz-adv-x="516" 
d="M110 50v120l211 135l-211 135v120l295 -189v-133z" />
    <glyph glyph-name="exclamdbl" unicode="&#x203c;" horiz-adv-x="546" 
d="M74 221l-22 475h159l-23 -475h-114zM357 221l-23 475h160l-23 -475h-114zM134 -6q-39 0 -60.5 21t-21.5 58q0 36 21.5 57t60.5 21q37 0 58.5 -21t21.5 -57q0 -37 -21.5 -58t-58.5 -21zM417 -6q-39 0 -61 21t-22 58q0 36 22 57t61 21q37 0 58.5 -21.5t21.5 -56.5
q0 -37 -21.5 -58t-58.5 -21z" />
    <glyph glyph-name="fraction" unicode="&#x2044;" horiz-adv-x="264" 
d="M-83 0l320 696h111l-320 -696h-111z" />
    <glyph glyph-name="Euro" unicode="&#x20ac;" horiz-adv-x="682" 
d="M636 213q-8 -102 -76 -162t-187 -60q-226 0 -272 231h-82v74h72q-3 29 -3 61q0 16 2 42h-71v75h80q44 231 275 231q118 0 186 -60t76 -165l-128 -24q-8 76 -39 111.5t-96 35.5q-113 0 -142 -129h154v-75h-163q-1 -13 -1 -42q0 -43 2 -61h162v-74h-152q15 -67 49.5 -97
t90.5 -30q67 0 98 34.5t37 107.5z" />
    <glyph glyph-name="lsquare" unicode="&#x2113;" horiz-adv-x="515" 
d="M249 306q29 0 43.5 12.5t20.5 49.5l26 162q14 73 -44 73q-29 0 -44 -14.5t-22 -50.5l-28 -169q-12 -63 48 -63zM396 35q-93 -41 -173 -41q-95 0 -146 54t-34 152l55 347q28 158 208 158q99 0 140 -40t28 -125l-30 -185q-12 -69 -59 -103.5t-119 -34.5q-52 0 -84 21
l-6 -43q-7 -48 13.5 -72t64.5 -24q63 0 141 39z" />
    <glyph glyph-name="numero" unicode="&#x2116;" horiz-adv-x="1059" 
d="M802 257q-87 0 -137.5 56t-50.5 171q0 109 51.5 165t136.5 56q86 0 137 -56.5t51 -167.5q0 -113 -51 -168.5t-137 -55.5zM802 355q35 0 50 28.5t15 97.5q0 67 -15 96.5t-50 29.5q-36 0 -50.5 -29t-14.5 -97q0 -69 15 -97.5t50 -28.5zM195 518v-518h-118v696h167l172 -557
v557h118v-696h-177z" />
    <glyph glyph-name="trademark" unicode="&#x2122;" horiz-adv-x="846" 
d="M172 371v263h-109v62h289v-62h-103v-263h-77zM483 587v-216h-74v325h94l71 -191l72 191h94v-325h-72l-1 219l-63 -157h-60z" />
    <glyph glyph-name="Ohm" unicode="&#x2126;" horiz-adv-x="714" 
 />
    <glyph glyph-name="oneeighth" unicode="&#x215b;" horiz-adv-x="973" 
d="M274 0l321 696h110l-319 -696h-112z" />
    <glyph glyph-name="threeeighths" unicode="&#x215c;" horiz-adv-x="1005" 
d="M288 0l320 696h110l-319 -696h-111z" />
    <glyph glyph-name="fiveeighths" unicode="&#x215d;" horiz-adv-x="1006" 
d="M289 0l320 696h111l-320 -696h-111z" />
    <glyph glyph-name="seveneighths" unicode="&#x215e;" horiz-adv-x="944" 
d="M228 0l320 696h111l-320 -696h-111z" />
    <glyph glyph-name="minus" unicode="&#x2212;" horiz-adv-x="626" 
d="M67 252v106h492v-106h-492z" />
    <glyph glyph-name="uni2215" unicode="&#x2215;" horiz-adv-x="264" 
d="M-83 0l320 696h111l-320 -696h-111z" />
    <glyph glyph-name="uni2219" unicode="&#x2219;" horiz-adv-x="316" 
d="M159 250q-39 0 -62 23.5t-23 63.5q0 39 23.5 62t61.5 23q37 0 60 -23t23 -62q0 -40 -23 -63.5t-60 -23.5z" />
    <glyph glyph-name="approxequal" unicode="&#x2248;" horiz-adv-x="670" 
d="M455 338q-51 0 -82 22.5t-62 74.5q-41 66 -56.5 80.5t-46.5 14.5q-54 0 -54 -101v-67h-102v72q0 95 43.5 146.5t117.5 51.5q52 0 84 -22t63 -73q40 -66 56 -81.5t45 -15.5q28 0 41.5 22.5t13.5 76.5v71h103v-77q0 -92 -44.5 -143.5t-119.5 -51.5zM453 -9
q-48 0 -79.5 22.5t-61.5 72.5q-43 68 -58 82.5t-45 14.5q-55 0 -55 -102v-68h-102v73q0 94 44 146t117 52q52 0 84 -22t63 -74q41 -66 56.5 -81.5t44.5 -15.5q28 0 41.5 23t13.5 77v70h103v-76q0 -93 -44 -143.5t-122 -50.5z" />
    <glyph glyph-name="notequal" unicode="&#x2260;" horiz-adv-x="670" 
d="M598 165h-259l-34 -142h-96l35 142h-171v100h195l42 171h-237v102h262l34 141h94l-34 -141h169v-102h-193l-42 -171h235v-100z" />
    <glyph glyph-name="lessequal" unicode="&#x2264;" horiz-adv-x="626" 
d="M551 154l-475 192v127l475 191v-107l-369 -148l369 -148v-107zM76 0v95h475v-95h-475z" />
    <glyph glyph-name="greaterequal" unicode="&#x2265;" horiz-adv-x="626" 
d="M76 154v107l369 148l-369 148v107l475 -191v-127zM551 0h-475v95h475v-95z" />
    <glyph glyph-name="commaaccent" unicode="&#xf6c3;" horiz-adv-x="535" 
d="M148 -251q37 84 62 174h157q-50 -86 -131 -174h-88z" />
    <glyph glyph-name="apple" unicode="&#xf8ff;" horiz-adv-x="563" 
d="M324 450l165 23h69v-36h-69l-159 -21l39 -51h120l37 -101l28 -50l-31 -15l-27 53l-32 78h-81l12 -139h61l11 -189l25 -63l-31 -15l-29 74l-10 153h-29l-69 -179h-85l-71 179h-29l-9 -153l-29 -74l-32 15l24 63l13 189h61l11 139h-81l-30 -78l-28 -53l-31 15l28 50l36 101
h121l39 51l-160 21h-68v36h68l167 -23v38l-32 19v43l50 12v18l-103 52l-48 11l1 34l47 -8l128 -62l127 62l46 8l2 -34l-48 -11l-105 -52v-18l51 -12v-43l-31 -19v-38z" />
    <glyph glyph-name="uniFEFF" unicode="&#xfeff;" horiz-adv-x="0" 
 />
    <glyph glyph-name="dot" horiz-adv-x="0" 
d="M0 621q-53 0 -53 50q0 52 53 52t53 -53q0 -49 -53 -49z" />
    <glyph glyph-name="dot.round" horiz-adv-x="0" 
d="M0 621q-53 0 -53 50q0 52 53 52t53 -53q0 -49 -53 -49z" />
    <glyph glyph-name="dot.square" horiz-adv-x="0" 
d="M-46 626v91h92v-91h-92z" />
    <glyph glyph-name="space.frac" horiz-adv-x="235" 
 />
    <glyph glyph-name="caron.salt" horiz-adv-x="535" 
d="M192 470q30 111 37 226h114q-18 -130 -87 -226h-64z" />
    <glyph glyph-name="caroncmb.salt" horiz-adv-x="0" 
d="M-74 470q28 106 36 226h115q-18 -130 -87 -226h-64z" />
    <glyph glyph-name="I.i" horiz-adv-x="303" 
d="M85 0v696h132v-696h-132z" />
    <glyph glyph-name="Igrave.i" horiz-adv-x="303" 
d="M144 767q-67 57 -163 170h156q25 -59 95 -170h-88zM85 0v696h132v-696h-132z" />
    <glyph glyph-name="Iacute.i" horiz-adv-x="303" 
d="M62 767q62 93 93 170h159q-90 -108 -163 -170h-89zM85 0v696h132v-696h-132z" />
    <glyph glyph-name="Icircumflex.i" horiz-adv-x="303" 
d="M-1 764l-45 58q80 62 146 134h102q63 -70 147 -134l-44 -57q-90 42 -155 94q-66 -54 -151 -95zM85 0v696h132v-696h-132z" />
    <glyph glyph-name="Idieresis.i" horiz-adv-x="303" 
d="M247 770q-30 0 -48.5 18.5t-18.5 50.5q0 33 18.5 52.5t48.5 19.5t49 -19.5t19 -52.5q0 -32 -19 -50.5t-49 -18.5zM55 770q-30 0 -48.5 18.5t-18.5 50.5q0 33 18.5 52.5t48.5 19.5t48.5 -19.5t18.5 -52.5q0 -32 -19 -50.5t-48 -18.5zM85 0v696h132v-696h-132z" />
    <glyph glyph-name="Itilde.i" horiz-adv-x="303" 
d="M224 774q-54 0 -89 47q-2 2 -8 10.5t-8.5 11.5t-8 8.5t-9 8t-8.5 4.5t-10 2q-34 0 -33 -71v-11h-91v13q0 70 33 114.5t88 44.5q32 0 51 -11.5t39 -34.5q2 -3 10 -13.5t10.5 -14t8.5 -9.5t11 -8t11 -2q34 0 33 72v12h89v-13q0 -72 -32 -116t-87 -44zM85 0v696h132v-696
h-132z" />
    <glyph glyph-name="Imacron.i" horiz-adv-x="303" 
d="M-18 803v99h339v-99h-339zM85 0v696h132v-696h-132z" />
    <glyph glyph-name="Ibreve.i" horiz-adv-x="303" 
d="M151 767q-196 0 -197 190h106q1 -61 21.5 -84.5t69.5 -23.5q50 0 70.5 23.5t21.5 84.5h106q-1 -190 -198 -190zM85 0v696h132v-696h-132z" />
    <glyph glyph-name="Iogonek.i" horiz-adv-x="303" 
d="M269 -181q-43 -10 -89 -10q-64 0 -100.5 27t-36.5 77q0 51 42 93v690h132v-696h-55q-26 -29 -26 -59q0 -48 65 -48q24 0 69 9z" />
    <glyph glyph-name="Idotaccent.i" horiz-adv-x="303" 
d="M151 770q-35 0 -57.5 18.5t-22.5 50.5q0 33 22.5 52.5t57.5 19.5q36 0 58.5 -19.5t22.5 -52.5q0 -32 -23 -50.5t-58 -18.5zM85 0v696h132v-696h-132z" />
    <glyph glyph-name="IJ.i" horiz-adv-x="870" 
d="M85 0v696h132v-696h-132zM555 -9q-110 0 -172.5 59t-70.5 171l125 23q7 -76 33.5 -110t83.5 -34q110 0 110 141v455h132v-459q0 -111 -63.5 -178.5t-177.5 -67.5z" />
    <glyph glyph-name="a.t" horiz-adv-x="540" 
d="M242 79q57 0 103 46v97h-98q-36 0 -57 -17.5t-21 -52.5q0 -73 73 -73zM365 0q-9 24 -10 52q-61 -61 -158 -61q-70 0 -112 41t-42 112q0 74 50 115t136 41h114v50q0 43 -23 66.5t-65 23.5q-40 0 -65.5 -19t-44.5 -63l-93 50q54 124 211 124q93 0 151 -46.5t58 -130.5v-264
q0 -45 10 -91h-117z" />
    <glyph glyph-name="agrave.t" horiz-adv-x="540" 
d="M262 593q-74 63 -163 170h156q23 -54 95 -170h-88zM242 79q57 0 103 46v97h-98q-36 0 -57 -17.5t-21 -52.5q0 -73 73 -73zM365 0q-9 24 -10 52q-61 -61 -158 -61q-70 0 -112 41t-42 112q0 74 50 115t136 41h114v50q0 43 -23 66.5t-65 23.5q-40 0 -65.5 -19t-44.5 -63
l-93 50q54 124 211 124q93 0 151 -46.5t58 -130.5v-264q0 -45 10 -91h-117z" />
    <glyph glyph-name="aacute.t" horiz-adv-x="540" 
d="M178 593q65 99 93 170h159q-90 -108 -163 -170h-89zM242 79q57 0 103 46v97h-98q-36 0 -57 -17.5t-21 -52.5q0 -73 73 -73zM365 0q-9 24 -10 52q-61 -61 -158 -61q-70 0 -112 41t-42 112q0 74 50 115t136 41h114v50q0 43 -23 66.5t-65 23.5q-40 0 -65.5 -19t-44.5 -63
l-93 50q54 124 211 124q93 0 151 -46.5t58 -130.5v-264q0 -45 10 -91h-117z" />
    <glyph glyph-name="acircumflex.t" horiz-adv-x="540" 
d="M120 590l-45 58q81 63 146 135h102q62 -70 147 -135l-44 -57q-90 42 -155 94q-66 -54 -151 -95zM242 79q57 0 103 46v97h-98q-36 0 -57 -17.5t-21 -52.5q0 -73 73 -73zM365 0q-9 24 -10 52q-61 -61 -158 -61q-70 0 -112 41t-42 112q0 74 50 115t136 41h114v50
q0 43 -23 66.5t-65 23.5q-40 0 -65.5 -19t-44.5 -63l-93 50q54 124 211 124q93 0 151 -46.5t58 -130.5v-264q0 -45 10 -91h-117z" />
    <glyph glyph-name="atilde.t" horiz-adv-x="540" 
d="M343 601q-53 0 -88 46q-26 36 -38 42q-7 3 -14 3q-34 0 -33 -71v-11h-91v13q0 70 33 115t88 45q32 0 51 -12t39 -35q2 -3 9.5 -13.5t10.5 -14t9 -9.5t11 -8t10 -2q35 0 34 72v12h89v-13q0 -71 -32 -115t-88 -44zM242 79q57 0 103 46v97h-98q-36 0 -57 -17.5t-21 -52.5
q0 -73 73 -73zM365 0q-9 24 -10 52q-61 -61 -158 -61q-70 0 -112 41t-42 112q0 74 50 115t136 41h114v50q0 43 -23 66.5t-65 23.5q-40 0 -65.5 -19t-44.5 -63l-93 50q54 124 211 124q93 0 151 -46.5t58 -130.5v-264q0 -45 10 -91h-117z" />
    <glyph glyph-name="adieresis.t" horiz-adv-x="540" 
d="M370 597q-30 0 -48.5 18.5t-18.5 50.5q0 33 18.5 52t48.5 19t49 -19t19 -52q0 -32 -19 -50.5t-49 -18.5zM178 597q-30 0 -48.5 18.5t-18.5 50.5q0 33 18.5 52t48.5 19t48.5 -19t18.5 -52q0 -32 -19 -50.5t-48 -18.5zM242 79q57 0 103 46v97h-98q-36 0 -57 -17.5
t-21 -52.5q0 -73 73 -73zM365 0q-9 24 -10 52q-61 -61 -158 -61q-70 0 -112 41t-42 112q0 74 50 115t136 41h114v50q0 43 -23 66.5t-65 23.5q-40 0 -65.5 -19t-44.5 -63l-93 50q54 124 211 124q93 0 151 -46.5t58 -130.5v-264q0 -45 10 -91h-117z" />
    <glyph glyph-name="aring.t" horiz-adv-x="540" 
d="M269 585q-71 0 -112.5 37.5t-41.5 105.5q0 67 42 104.5t112 37.5q71 0 113 -37.5t42 -104.5q0 -68 -42 -105.5t-113 -37.5zM269 652q62 0 62 76q0 35 -16 55t-46 20q-29 0 -45.5 -20.5t-16.5 -54.5q0 -76 62 -76zM242 79q57 0 103 46v97h-98q-36 0 -57 -17.5t-21 -52.5
q0 -73 73 -73zM365 0q-9 24 -10 52q-61 -61 -158 -61q-70 0 -112 41t-42 112q0 74 50 115t136 41h114v50q0 43 -23 66.5t-65 23.5q-40 0 -65.5 -19t-44.5 -63l-93 50q54 124 211 124q93 0 151 -46.5t58 -130.5v-264q0 -45 10 -91h-117z" />
    <glyph glyph-name="amacron.t" horiz-adv-x="540" 
d="M107 629v100h339v-100h-339zM242 79q57 0 103 46v97h-98q-36 0 -57 -17.5t-21 -52.5q0 -73 73 -73zM365 0q-9 24 -10 52q-61 -61 -158 -61q-70 0 -112 41t-42 112q0 74 50 115t136 41h114v50q0 43 -23 66.5t-65 23.5q-40 0 -65.5 -19t-44.5 -63l-93 50q54 124 211 124
q93 0 151 -46.5t58 -130.5v-264q0 -45 10 -91h-117z" />
    <glyph glyph-name="abreve.t" horiz-adv-x="540" 
d="M276 593q-196 0 -197 191h106q1 -61 21.5 -85t69.5 -24q50 0 70.5 24t21.5 85h106q-1 -191 -198 -191zM242 79q57 0 103 46v97h-98q-36 0 -57 -17.5t-21 -52.5q0 -73 73 -73zM365 0q-9 24 -10 52q-61 -61 -158 -61q-70 0 -112 41t-42 112q0 74 50 115t136 41h114v50
q0 43 -23 66.5t-65 23.5q-40 0 -65.5 -19t-44.5 -63l-93 50q54 124 211 124q93 0 151 -46.5t58 -130.5v-264q0 -45 10 -91h-117z" />
    <glyph glyph-name="aogonek.t" horiz-adv-x="540" 
d="M242 79q57 0 103 46v97h-98q-36 0 -57 -17.5t-21 -52.5q0 -73 73 -73zM540 -181q-44 -10 -90 -10q-64 0 -100.5 27t-36.5 77q0 53 48 98q-5 18 -6 41q-61 -61 -158 -61q-70 0 -112 41t-42 112q0 74 50 115t136 41h114v50q0 43 -23 66.5t-65 23.5q-40 0 -65.5 -19
t-44.5 -63l-93 50q54 124 211 124q93 0 151 -46.5t58 -130.5v-264q0 -45 10 -91h-49q-26 -27 -26 -59q0 -48 65 -48q22 0 69 9z" />
    <glyph glyph-name="aringacute.t" horiz-adv-x="540" 
d="M271 585q-71 0 -112.5 37.5t-41.5 105.5q0 55 29 90.5t81 46.5q57 88 86 159h159q-86 -103 -152 -160q50 -11 78 -46.5t28 -89.5q0 -68 -42 -105.5t-113 -37.5zM271 652q62 0 62 76q0 35 -16 55t-46 20q-29 0 -45.5 -20.5t-16.5 -54.5q0 -76 62 -76zM242 79q57 0 103 46
v97h-98q-36 0 -57 -17.5t-21 -52.5q0 -73 73 -73zM365 0q-9 24 -10 52q-61 -61 -158 -61q-70 0 -112 41t-42 112q0 74 50 115t136 41h114v50q0 43 -23 66.5t-65 23.5q-40 0 -65.5 -19t-44.5 -63l-93 50q54 124 211 124q93 0 151 -46.5t58 -130.5v-264q0 -45 10 -91h-117z
" />
    <glyph glyph-name="a.ssa" horiz-adv-x="589" 
d="M286 434q-55 0 -80 -42t-25 -134q0 -89 25 -125.5t71 -36.5q59 0 108 58v249q-46 31 -99 31zM264 532q66 0 127 -29v19h126v-522h-132v85q-61 -94 -155 -94q-83 0 -132.5 67.5t-49.5 198.5q0 129 59 202t157 73z" />
    <glyph glyph-name="agrave.ssa" horiz-adv-x="589" 
d="M262 593q-74 63 -163 170h156q23 -54 95 -170h-88zM286 434q-55 0 -80 -42t-25 -134q0 -89 25 -125.5t71 -36.5q59 0 108 58v249q-46 31 -99 31zM264 532q66 0 127 -29v19h126v-522h-132v85q-61 -94 -155 -94q-83 0 -132.5 67.5t-49.5 198.5q0 129 59 202t157 73z" />
    <glyph glyph-name="aacute.ssa" horiz-adv-x="589" 
d="M178 593q65 99 93 170h159q-90 -108 -163 -170h-89zM286 434q-55 0 -80 -42t-25 -134q0 -89 25 -125.5t71 -36.5q59 0 108 58v249q-46 31 -99 31zM264 532q66 0 127 -29v19h126v-522h-132v85q-61 -94 -155 -94q-83 0 -132.5 67.5t-49.5 198.5q0 129 59 202t157 73z" />
    <glyph glyph-name="acircumflex.ssa" horiz-adv-x="589" 
d="M120 590l-45 58q81 63 146 135h102q62 -70 147 -135l-44 -57q-90 42 -155 94q-66 -54 -151 -95zM286 434q-55 0 -80 -42t-25 -134q0 -89 25 -125.5t71 -36.5q59 0 108 58v249q-46 31 -99 31zM264 532q66 0 127 -29v19h126v-522h-132v85q-61 -94 -155 -94
q-83 0 -132.5 67.5t-49.5 198.5q0 129 59 202t157 73z" />
    <glyph glyph-name="atilde.ssa" horiz-adv-x="589" 
d="M343 601q-53 0 -88 46q-26 36 -38 42q-7 3 -14 3q-34 0 -33 -71v-11h-91v13q0 70 33 115t88 45q32 0 51 -12t39 -35q2 -3 9.5 -13.5t10.5 -14t9 -9.5t11 -8t10 -2q35 0 34 72v12h89v-13q0 -71 -32 -115t-88 -44zM286 434q-55 0 -80 -42t-25 -134q0 -89 25 -125.5
t71 -36.5q59 0 108 58v249q-46 31 -99 31zM264 532q66 0 127 -29v19h126v-522h-132v85q-61 -94 -155 -94q-83 0 -132.5 67.5t-49.5 198.5q0 129 59 202t157 73z" />
    <glyph glyph-name="adieresis.ssa" horiz-adv-x="589" 
d="M367 597q-31 0 -49 18.5t-18 50.5q0 33 18.5 52t48.5 19t49 -19t19 -52q0 -32 -19.5 -50.5t-48.5 -18.5zM175 597q-31 0 -49 18.5t-18 50.5q0 33 18.5 52t48.5 19t48.5 -19t18.5 -52q0 -32 -19 -50.5t-48 -18.5zM286 434q-55 0 -80 -42t-25 -134q0 -89 25 -125.5
t71 -36.5q59 0 108 58v249q-46 31 -99 31zM264 532q66 0 127 -29v19h126v-522h-132v85q-61 -94 -155 -94q-83 0 -132.5 67.5t-49.5 198.5q0 129 59 202t157 73z" />
    <glyph glyph-name="aring.ssa" horiz-adv-x="589" 
d="M269 585q-71 0 -112.5 37.5t-41.5 105.5q0 67 42 104.5t112 37.5q71 0 113 -37.5t42 -104.5q0 -68 -42 -105.5t-113 -37.5zM269 652q62 0 62 76q0 35 -16 55t-46 20q-29 0 -45.5 -20.5t-16.5 -54.5q0 -76 62 -76zM286 434q-55 0 -80 -42t-25 -134q0 -89 25 -125.5
t71 -36.5q59 0 108 58v249q-46 31 -99 31zM264 532q66 0 127 -29v19h126v-522h-132v85q-61 -94 -155 -94q-83 0 -132.5 67.5t-49.5 198.5q0 129 59 202t157 73z" />
    <glyph glyph-name="amacron.ssa" horiz-adv-x="589" 
d="M107 629v100h339v-100h-339zM286 434q-55 0 -80 -42t-25 -134q0 -89 25 -125.5t71 -36.5q59 0 108 58v249q-46 31 -99 31zM264 532q66 0 127 -29v19h126v-522h-132v85q-61 -94 -155 -94q-83 0 -132.5 67.5t-49.5 198.5q0 129 59 202t157 73z" />
    <glyph glyph-name="abreve.ssa" horiz-adv-x="589" 
d="M276 593q-196 0 -197 191h106q1 -61 21.5 -85t69.5 -24q50 0 70.5 24t21.5 85h106q-1 -191 -198 -191zM286 434q-55 0 -80 -42t-25 -134q0 -89 25 -125.5t71 -36.5q59 0 108 58v249q-46 31 -99 31zM264 532q66 0 127 -29v19h126v-522h-132v85q-61 -94 -155 -94
q-83 0 -132.5 67.5t-49.5 198.5q0 129 59 202t157 73z" />
    <glyph glyph-name="aogonek.ssa" horiz-adv-x="589" 
d="M286 434q-55 0 -80 -42t-25 -134q0 -89 25 -125.5t71 -36.5q59 0 108 58v249q-46 31 -99 31zM566 -181q-43 -10 -89 -10q-65 0 -101.5 27t-36.5 77t46 96v76q-61 -94 -155 -94q-83 0 -132.5 67.5t-49.5 198.5q0 129 59 202t157 73q66 0 127 -29v19h126v-522h-58
q-26 -27 -26 -59q0 -48 65 -48q24 0 69 9z" />
    <glyph glyph-name="aringacute.ssa" horiz-adv-x="589" 
d="M271 585q-71 0 -112.5 37.5t-41.5 105.5q0 55 29 90.5t81 46.5q57 88 86 159h159q-86 -103 -152 -160q50 -11 78 -46.5t28 -89.5q0 -68 -42 -105.5t-113 -37.5zM271 652q62 0 62 76q0 35 -16 55t-46 20q-29 0 -45.5 -20.5t-16.5 -54.5q0 -76 62 -76zM286 434
q-55 0 -80 -42t-25 -134q0 -89 25 -125.5t71 -36.5q59 0 108 58v249q-46 31 -99 31zM264 532q66 0 127 -29v19h126v-522h-132v85q-61 -94 -155 -94q-83 0 -132.5 67.5t-49.5 198.5q0 129 59 202t157 73z" />
    <glyph glyph-name="a.t_c" horiz-adv-x="543" 
d="M247 79q42 0 71.5 22t29.5 68v55h-101q-34 0 -56 -17.5t-22 -52.5q0 -75 78 -75zM368 0q-10 27 -10 61q-42 -70 -154 -70q-70 0 -116 42.5t-46 113.5q0 74 50.5 114.5t136.5 40.5h118v45q0 43 -24.5 68t-67.5 25q-42 0 -64 -17.5t-27 -55.5h-110q21 165 208 165
q94 0 153.5 -48.5t59.5 -134.5v-258q0 -45 10 -91h-117z" />
    <glyph glyph-name="agrave.t_c" horiz-adv-x="543" 
d="M262 593q-74 63 -163 170h156q23 -54 95 -170h-88zM247 79q42 0 71.5 22t29.5 68v55h-101q-34 0 -56 -17.5t-22 -52.5q0 -75 78 -75zM368 0q-10 27 -10 61q-42 -70 -154 -70q-70 0 -116 42.5t-46 113.5q0 74 50.5 114.5t136.5 40.5h118v45q0 43 -24.5 68t-67.5 25
q-42 0 -64 -17.5t-27 -55.5h-110q21 165 208 165q94 0 153.5 -48.5t59.5 -134.5v-258q0 -45 10 -91h-117z" />
    <glyph glyph-name="aacute.t_c" horiz-adv-x="543" 
d="M178 593q65 99 93 170h159q-90 -108 -163 -170h-89zM247 79q42 0 71.5 22t29.5 68v55h-101q-34 0 -56 -17.5t-22 -52.5q0 -75 78 -75zM368 0q-10 27 -10 61q-42 -70 -154 -70q-70 0 -116 42.5t-46 113.5q0 74 50.5 114.5t136.5 40.5h118v45q0 43 -24.5 68t-67.5 25
q-42 0 -64 -17.5t-27 -55.5h-110q21 165 208 165q94 0 153.5 -48.5t59.5 -134.5v-258q0 -45 10 -91h-117z" />
    <glyph glyph-name="acircumflex.t_c" horiz-adv-x="543" 
d="M120 590l-45 58q81 63 146 135h102q62 -70 147 -135l-44 -57q-90 42 -155 94q-66 -54 -151 -95zM247 79q42 0 71.5 22t29.5 68v55h-101q-34 0 -56 -17.5t-22 -52.5q0 -75 78 -75zM368 0q-10 27 -10 61q-42 -70 -154 -70q-70 0 -116 42.5t-46 113.5q0 74 50.5 114.5
t136.5 40.5h118v45q0 43 -24.5 68t-67.5 25q-42 0 -64 -17.5t-27 -55.5h-110q21 165 208 165q94 0 153.5 -48.5t59.5 -134.5v-258q0 -45 10 -91h-117z" />
    <glyph glyph-name="atilde.t_c" horiz-adv-x="543" 
d="M343 601q-53 0 -88 46q-26 36 -38 42q-7 3 -14 3q-34 0 -33 -71v-11h-91v13q0 70 33 115t88 45q32 0 51 -12t39 -35q2 -3 9.5 -13.5t10.5 -14t9 -9.5t11 -8t10 -2q35 0 34 72v12h89v-13q0 -71 -32 -115t-88 -44zM247 79q42 0 71.5 22t29.5 68v55h-101q-34 0 -56 -17.5
t-22 -52.5q0 -75 78 -75zM368 0q-10 27 -10 61q-42 -70 -154 -70q-70 0 -116 42.5t-46 113.5q0 74 50.5 114.5t136.5 40.5h118v45q0 43 -24.5 68t-67.5 25q-42 0 -64 -17.5t-27 -55.5h-110q21 165 208 165q94 0 153.5 -48.5t59.5 -134.5v-258q0 -45 10 -91h-117z" />
    <glyph glyph-name="adieresis.t_c" horiz-adv-x="543" 
d="M367 597q-31 0 -49 18.5t-18 50.5q0 33 18.5 52t48.5 19t49 -19t19 -52q0 -32 -19.5 -50.5t-48.5 -18.5zM175 597q-31 0 -49 18.5t-18 50.5q0 33 18.5 52t48.5 19t48.5 -19t18.5 -52q0 -32 -19 -50.5t-48 -18.5zM247 79q42 0 71.5 22t29.5 68v55h-101q-34 0 -56 -17.5
t-22 -52.5q0 -75 78 -75zM368 0q-10 27 -10 61q-42 -70 -154 -70q-70 0 -116 42.5t-46 113.5q0 74 50.5 114.5t136.5 40.5h118v45q0 43 -24.5 68t-67.5 25q-42 0 -64 -17.5t-27 -55.5h-110q21 165 208 165q94 0 153.5 -48.5t59.5 -134.5v-258q0 -45 10 -91h-117z" />
    <glyph glyph-name="aring.t_c" horiz-adv-x="543" 
d="M269 585q-71 0 -112.5 37.5t-41.5 105.5q0 67 42 104.5t112 37.5q71 0 113 -37.5t42 -104.5q0 -68 -42 -105.5t-113 -37.5zM269 652q62 0 62 76q0 35 -16 55t-46 20q-29 0 -45.5 -20.5t-16.5 -54.5q0 -76 62 -76zM247 79q42 0 71.5 22t29.5 68v55h-101q-34 0 -56 -17.5
t-22 -52.5q0 -75 78 -75zM368 0q-10 27 -10 61q-42 -70 -154 -70q-70 0 -116 42.5t-46 113.5q0 74 50.5 114.5t136.5 40.5h118v45q0 43 -24.5 68t-67.5 25q-42 0 -64 -17.5t-27 -55.5h-110q21 165 208 165q94 0 153.5 -48.5t59.5 -134.5v-258q0 -45 10 -91h-117z" />
    <glyph glyph-name="amacron.t_c" horiz-adv-x="543" 
d="M107 629v100h339v-100h-339zM247 79q42 0 71.5 22t29.5 68v55h-101q-34 0 -56 -17.5t-22 -52.5q0 -75 78 -75zM368 0q-10 27 -10 61q-42 -70 -154 -70q-70 0 -116 42.5t-46 113.5q0 74 50.5 114.5t136.5 40.5h118v45q0 43 -24.5 68t-67.5 25q-42 0 -64 -17.5t-27 -55.5
h-110q21 165 208 165q94 0 153.5 -48.5t59.5 -134.5v-258q0 -45 10 -91h-117z" />
    <glyph glyph-name="abreve.t_c" horiz-adv-x="543" 
d="M276 593q-196 0 -197 191h106q1 -61 21.5 -85t69.5 -24q50 0 70.5 24t21.5 85h106q-1 -191 -198 -191zM247 79q42 0 71.5 22t29.5 68v55h-101q-34 0 -56 -17.5t-22 -52.5q0 -75 78 -75zM368 0q-10 27 -10 61q-42 -70 -154 -70q-70 0 -116 42.5t-46 113.5q0 74 50.5 114.5
t136.5 40.5h118v45q0 43 -24.5 68t-67.5 25q-42 0 -64 -17.5t-27 -55.5h-110q21 165 208 165q94 0 153.5 -48.5t59.5 -134.5v-258q0 -45 10 -91h-117z" />
    <glyph glyph-name="aogonek.t_c" horiz-adv-x="543" 
d="M247 79q42 0 71.5 22t29.5 68v55h-101q-34 0 -56 -17.5t-22 -52.5q0 -75 78 -75zM546 -181q-44 -10 -90 -10q-64 0 -100.5 27t-36.5 77q0 52 46 96q-7 24 -7 52q-42 -70 -154 -70q-70 0 -116 42.5t-46 113.5q0 74 50.5 114.5t136.5 40.5h118v45q0 43 -24.5 68t-67.5 25
q-42 0 -64 -17.5t-27 -55.5h-110q21 165 208 165q94 0 153.5 -48.5t59.5 -134.5v-258q0 -45 10 -91h-46q-26 -27 -26 -59q0 -48 65 -48q22 0 69 9z" />
    <glyph glyph-name="aringacute.t_c" horiz-adv-x="543" 
d="M271 585q-71 0 -112.5 37.5t-41.5 105.5q0 55 29 90.5t81 46.5q57 88 86 159h159q-86 -103 -152 -160q50 -11 78 -46.5t28 -89.5q0 -68 -42 -105.5t-113 -37.5zM271 652q62 0 62 76q0 35 -16 55t-46 20q-29 0 -45.5 -20.5t-16.5 -54.5q0 -76 62 -76zM247 79q42 0 71.5 22
t29.5 68v55h-101q-34 0 -56 -17.5t-22 -52.5q0 -75 78 -75zM368 0q-10 27 -10 61q-42 -70 -154 -70q-70 0 -116 42.5t-46 113.5q0 74 50.5 114.5t136.5 40.5h118v45q0 43 -24.5 68t-67.5 25q-42 0 -64 -17.5t-27 -55.5h-110q21 165 208 165q94 0 153.5 -48.5t59.5 -134.5
v-258q0 -45 10 -91h-117z" />
    <glyph glyph-name="a.t_o" horiz-adv-x="526" 
d="M232 79q55 0 99 46v107h-95q-33 0 -53.5 -17.5t-20.5 -53.5q0 -82 70 -82zM352 0q-9 24 -10 53q-62 -62 -155 -62q-68 0 -109.5 42.5t-41.5 115.5q0 77 49 119t131 42h113v35q0 41 -27.5 65.5t-74.5 24.5q-70 0 -142 -44v104q66 37 163 37q92 0 151 -44.5t59 -137.5v-259
q0 -45 10 -91h-116z" />
    <glyph glyph-name="agrave.t_o" horiz-adv-x="526" 
d="M262 593q-74 63 -163 170h156q23 -54 95 -170h-88zM232 79q55 0 99 46v107h-95q-33 0 -53.5 -17.5t-20.5 -53.5q0 -82 70 -82zM352 0q-9 24 -10 53q-62 -62 -155 -62q-68 0 -109.5 42.5t-41.5 115.5q0 77 49 119t131 42h113v35q0 41 -27.5 65.5t-74.5 24.5
q-70 0 -142 -44v104q66 37 163 37q92 0 151 -44.5t59 -137.5v-259q0 -45 10 -91h-116z" />
    <glyph glyph-name="aacute.t_o" horiz-adv-x="526" 
d="M178 593q65 99 93 170h159q-90 -108 -163 -170h-89zM232 79q55 0 99 46v107h-95q-33 0 -53.5 -17.5t-20.5 -53.5q0 -82 70 -82zM352 0q-9 24 -10 53q-62 -62 -155 -62q-68 0 -109.5 42.5t-41.5 115.5q0 77 49 119t131 42h113v35q0 41 -27.5 65.5t-74.5 24.5
q-70 0 -142 -44v104q66 37 163 37q92 0 151 -44.5t59 -137.5v-259q0 -45 10 -91h-116z" />
    <glyph glyph-name="acircumflex.t_o" horiz-adv-x="526" 
d="M120 590l-45 58q81 63 146 135h102q62 -70 147 -135l-44 -57q-90 42 -155 94q-66 -54 -151 -95zM232 79q55 0 99 46v107h-95q-33 0 -53.5 -17.5t-20.5 -53.5q0 -82 70 -82zM352 0q-9 24 -10 53q-62 -62 -155 -62q-68 0 -109.5 42.5t-41.5 115.5q0 77 49 119t131 42h113
v35q0 41 -27.5 65.5t-74.5 24.5q-70 0 -142 -44v104q66 37 163 37q92 0 151 -44.5t59 -137.5v-259q0 -45 10 -91h-116z" />
    <glyph glyph-name="atilde.t_o" horiz-adv-x="526" 
d="M343 601q-53 0 -88 46q-26 36 -38 42q-7 3 -14 3q-34 0 -33 -71v-11h-91v13q0 70 33 115t88 45q32 0 51 -12t39 -35q2 -3 9.5 -13.5t10.5 -14t9 -9.5t11 -8t10 -2q35 0 34 72v12h89v-13q0 -71 -32 -115t-88 -44zM232 79q55 0 99 46v107h-95q-33 0 -53.5 -17.5
t-20.5 -53.5q0 -82 70 -82zM352 0q-9 24 -10 53q-62 -62 -155 -62q-68 0 -109.5 42.5t-41.5 115.5q0 77 49 119t131 42h113v35q0 41 -27.5 65.5t-74.5 24.5q-70 0 -142 -44v104q66 37 163 37q92 0 151 -44.5t59 -137.5v-259q0 -45 10 -91h-116z" />
    <glyph glyph-name="adieresis.t_o" horiz-adv-x="526" 
d="M367 597q-31 0 -49 18.5t-18 50.5q0 33 18.5 52t48.5 19t49 -19t19 -52q0 -32 -19.5 -50.5t-48.5 -18.5zM175 597q-31 0 -49 18.5t-18 50.5q0 33 18.5 52t48.5 19t48.5 -19t18.5 -52q0 -32 -19 -50.5t-48 -18.5zM232 79q55 0 99 46v107h-95q-33 0 -53.5 -17.5
t-20.5 -53.5q0 -82 70 -82zM352 0q-9 24 -10 53q-62 -62 -155 -62q-68 0 -109.5 42.5t-41.5 115.5q0 77 49 119t131 42h113v35q0 41 -27.5 65.5t-74.5 24.5q-70 0 -142 -44v104q66 37 163 37q92 0 151 -44.5t59 -137.5v-259q0 -45 10 -91h-116z" />
    <glyph glyph-name="aring.t_o" horiz-adv-x="526" 
d="M269 585q-71 0 -112.5 37.5t-41.5 105.5q0 67 42 104.5t112 37.5q71 0 113 -37.5t42 -104.5q0 -68 -42 -105.5t-113 -37.5zM269 652q62 0 62 76q0 35 -16 55t-46 20q-29 0 -45.5 -20.5t-16.5 -54.5q0 -76 62 -76zM232 79q55 0 99 46v107h-95q-33 0 -53.5 -17.5
t-20.5 -53.5q0 -82 70 -82zM352 0q-9 24 -10 53q-62 -62 -155 -62q-68 0 -109.5 42.5t-41.5 115.5q0 77 49 119t131 42h113v35q0 41 -27.5 65.5t-74.5 24.5q-70 0 -142 -44v104q66 37 163 37q92 0 151 -44.5t59 -137.5v-259q0 -45 10 -91h-116z" />
    <glyph glyph-name="amacron.t_o" horiz-adv-x="526" 
d="M107 629v100h339v-100h-339zM232 79q55 0 99 46v107h-95q-33 0 -53.5 -17.5t-20.5 -53.5q0 -82 70 -82zM352 0q-9 24 -10 53q-62 -62 -155 -62q-68 0 -109.5 42.5t-41.5 115.5q0 77 49 119t131 42h113v35q0 41 -27.5 65.5t-74.5 24.5q-70 0 -142 -44v104q66 37 163 37
q92 0 151 -44.5t59 -137.5v-259q0 -45 10 -91h-116z" />
    <glyph glyph-name="abreve.t_o" horiz-adv-x="526" 
d="M276 593q-196 0 -197 191h106q1 -61 21.5 -85t69.5 -24q50 0 70.5 24t21.5 85h106q-1 -191 -198 -191zM232 79q55 0 99 46v107h-95q-33 0 -53.5 -17.5t-20.5 -53.5q0 -82 70 -82zM352 0q-9 24 -10 53q-62 -62 -155 -62q-68 0 -109.5 42.5t-41.5 115.5q0 77 49 119t131 42
h113v35q0 41 -27.5 65.5t-74.5 24.5q-70 0 -142 -44v104q66 37 163 37q92 0 151 -44.5t59 -137.5v-259q0 -45 10 -91h-116z" />
    <glyph glyph-name="aogonek.t_o" horiz-adv-x="526" 
d="M232 79q55 0 99 46v107h-95q-33 0 -53.5 -17.5t-20.5 -53.5q0 -82 70 -82zM525 -181q-43 -10 -89 -10q-64 0 -100.5 27t-36.5 77q0 53 49 99q-4 18 -6 41q-62 -62 -155 -62q-68 0 -109.5 42.5t-41.5 115.5q0 77 49 119t131 42h113v35q0 41 -27.5 65.5t-74.5 24.5
q-70 0 -142 -44v104q66 37 163 37q92 0 151 -44.5t59 -137.5v-259q0 -45 10 -91h-50q-26 -29 -26 -59q0 -48 65 -48q24 0 69 9z" />
    <glyph glyph-name="aringacute.t_o" horiz-adv-x="526" 
d="M271 585q-71 0 -112.5 37.5t-41.5 105.5q0 55 29 90.5t81 46.5q57 88 86 159h159q-86 -103 -152 -160q50 -11 78 -46.5t28 -89.5q0 -68 -42 -105.5t-113 -37.5zM271 652q62 0 62 76q0 35 -16 55t-46 20q-29 0 -45.5 -20.5t-16.5 -54.5q0 -76 62 -76zM232 79q55 0 99 46
v107h-95q-33 0 -53.5 -17.5t-20.5 -53.5q0 -82 70 -82zM352 0q-9 24 -10 53q-62 -62 -155 -62q-68 0 -109.5 42.5t-41.5 115.5q0 77 49 119t131 42h113v35q0 41 -27.5 65.5t-74.5 24.5q-70 0 -142 -44v104q66 37 163 37q92 0 151 -44.5t59 -137.5v-259q0 -45 10 -91h-116z
" />
    <glyph glyph-name="b.copy_1" horiz-adv-x="590" 
d="M295 -9q-133 0 -224 61v663h132v-276q53 93 155 93q85 0 134 -70t49 -196q0 -135 -66 -205t-180 -70zM294 87q58 0 86 42t28 133q0 164 -97 164q-56 0 -108 -57v-259q44 -23 91 -23z" />
    <glyph glyph-name="q.copy_1" horiz-adv-x="590" 
d="M297 532q129 0 222 -60v-645h-132v256q-51 -92 -153 -92q-85 0 -134 69.5t-49 195.5q0 136 65.5 206t180.5 70zM297 435q-58 0 -86 -42t-28 -133q0 -163 97 -163q57 0 107 56v260q-39 22 -90 22z" />
    <glyph glyph-name="r.copy_1" horiz-adv-x="496" 
d="M204 0h-132v522h129v-87q20 44 57.5 70.5t81.5 26.5q60 0 92.5 -45.5t32.5 -111.5v-75h-115v55q0 72 -53 72q-49 0 -93 -74v-353z" />
    <glyph glyph-name="racute.copy_1" horiz-adv-x="496" 
d="M173 593q65 99 93 170h159q-90 -108 -163 -170h-89zM204 0h-132v522h129v-87q20 44 57.5 70.5t81.5 26.5q60 0 92.5 -45.5t32.5 -111.5v-75h-115v55q0 72 -53 72q-49 0 -93 -74v-353z" />
    <glyph glyph-name="rcommaaccent.copy_1" horiz-adv-x="496" 
d="M204 0h-132v522h129v-87q20 44 57.5 70.5t81.5 26.5q60 0 92.5 -45.5t32.5 -111.5v-75h-115v55q0 72 -53 72q-49 0 -93 -74v-353zM10 -251q37 84 62 174h157q-47 -82 -131 -174h-88z" />
    <glyph glyph-name="rcaron.copy_1" horiz-adv-x="496" 
d="M204 599q-62 71 -146 134l44 58q83 -44 154 -96q66 52 152 96l44 -58q-78 -60 -145 -134h-103zM204 0h-132v522h129v-87q20 44 57.5 70.5t81.5 26.5q60 0 92.5 -45.5t32.5 -111.5v-75h-115v55q0 72 -53 72q-49 0 -93 -74v-353z" />
    <glyph glyph-name="G.s" horiz-adv-x="671" 
d="M528 0l-11 75q-63 -84 -188 -84q-133 0 -204 92t-71 274q0 169 75.5 258.5t212.5 89.5q114 0 182.5 -53t79.5 -147l-129 -23q-9 59 -39.5 90t-90.5 31q-80 0 -119.5 -58.5t-39.5 -187.5q0 -139 38 -200.5t114 -61.5q73 0 108 36.5t38 125.5h-142v103h273v-360h-87z" />
    <glyph glyph-name="Gcircumflex.s" horiz-adv-x="671" 
d="M190 764l-45 58q80 62 146 134h102q63 -70 147 -134l-44 -57q-90 42 -155 94q-66 -54 -151 -95zM528 0l-11 75q-63 -84 -188 -84q-133 0 -204 92t-71 274q0 169 75.5 258.5t212.5 89.5q114 0 182.5 -53t79.5 -147l-129 -23q-9 59 -39.5 90t-90.5 31q-80 0 -119.5 -58.5
t-39.5 -187.5q0 -139 38 -200.5t114 -61.5q73 0 108 36.5t38 125.5h-142v103h273v-360h-87z" />
    <glyph glyph-name="Gbreve.s" horiz-adv-x="671" 
d="M342 767q-196 0 -197 190h106q1 -61 21.5 -84.5t69.5 -23.5q50 0 70.5 23.5t21.5 84.5h106q-1 -190 -198 -190zM528 0l-11 75q-63 -84 -188 -84q-133 0 -204 92t-71 274q0 169 75.5 258.5t212.5 89.5q114 0 182.5 -53t79.5 -147l-129 -23q-9 59 -39.5 90t-90.5 31
q-80 0 -119.5 -58.5t-39.5 -187.5q0 -139 38 -200.5t114 -61.5q73 0 108 36.5t38 125.5h-142v103h273v-360h-87z" />
    <glyph glyph-name="Gdotaccent.s" horiz-adv-x="671" 
d="M342 770q-35 0 -57.5 18.5t-22.5 50.5q0 33 22.5 52.5t57.5 19.5q36 0 58.5 -19.5t22.5 -52.5q0 -32 -23 -50.5t-58 -18.5zM528 0l-11 75q-63 -84 -188 -84q-133 0 -204 92t-71 274q0 169 75.5 258.5t212.5 89.5q114 0 182.5 -53t79.5 -147l-129 -23q-9 59 -39.5 90
t-90.5 31q-80 0 -119.5 -58.5t-39.5 -187.5q0 -139 38 -200.5t114 -61.5q73 0 108 36.5t38 125.5h-142v103h273v-360h-87z" />
    <glyph glyph-name="Gcommaaccent.s" horiz-adv-x="671" 
d="M528 0l-11 75q-63 -84 -188 -84q-133 0 -204 92t-71 274q0 169 75.5 258.5t212.5 89.5q114 0 182.5 -53t79.5 -147l-129 -23q-9 59 -39.5 90t-90.5 31q-80 0 -119.5 -58.5t-39.5 -187.5q0 -139 38 -200.5t114 -61.5q73 0 108 36.5t38 125.5h-142v103h273v-360h-87z
M225 -251q36 83 62 174h156q-46 -82 -131 -174h-87z" />
    <glyph glyph-name="g.ssg" horiz-adv-x="589" 
d="M286 434q-55 0 -80 -38t-25 -122q0 -146 96 -146q60 0 108 59v216q-46 31 -99 31zM388 32v87q-60 -96 -158 -96q-83 0 -132.5 64t-49.5 187q0 121 59 189.5t157 68.5q63 0 121 -29v19h132v-503q0 -96 -69.5 -150.5t-174.5 -54.5q-113 0 -203 57l40 88q80 -50 164 -50
q52 0 83 31t31 92z" />
    <glyph glyph-name="gcircumflex.ssg" horiz-adv-x="589" 
d="M172 590l-45 58q83 64 145 135h103q64 -72 146 -135l-43 -57q-90 42 -155 94q-70 -56 -151 -95zM286 434q-55 0 -80 -38t-25 -122q0 -146 96 -146q60 0 108 59v216q-46 31 -99 31zM388 32v87q-60 -96 -158 -96q-83 0 -132.5 64t-49.5 187q0 121 59 189.5t157 68.5
q63 0 121 -29v19h132v-503q0 -96 -69.5 -150.5t-174.5 -54.5q-113 0 -203 57l40 88q80 -50 164 -50q52 0 83 31t31 92z" />
    <glyph glyph-name="gbreve.ssg" horiz-adv-x="589" 
d="M324 593q-196 0 -197 191h106q1 -61 21.5 -85t69.5 -24q50 0 70.5 24t21.5 85h105q-1 -191 -197 -191zM286 434q-55 0 -80 -38t-25 -122q0 -146 96 -146q60 0 108 59v216q-46 31 -99 31zM388 32v87q-60 -96 -158 -96q-83 0 -132.5 64t-49.5 187q0 121 59 189.5t157 68.5
q63 0 121 -29v19h132v-503q0 -96 -69.5 -150.5t-174.5 -54.5q-113 0 -203 57l40 88q80 -50 164 -50q52 0 83 31t31 92z" />
    <glyph glyph-name="gdotaccent.ssg" horiz-adv-x="589" 
d="M324 597q-36 0 -58 18.5t-22 50.5q0 33 22 52t58 19t58 -19t22 -52q0 -32 -22.5 -50.5t-57.5 -18.5zM286 434q-55 0 -80 -38t-25 -122q0 -146 96 -146q60 0 108 59v216q-46 31 -99 31zM388 32v87q-60 -96 -158 -96q-83 0 -132.5 64t-49.5 187q0 121 59 189.5t157 68.5
q63 0 121 -29v19h132v-503q0 -96 -69.5 -150.5t-174.5 -54.5q-113 0 -203 57l40 88q80 -50 164 -50q52 0 83 31t31 92z" />
    <glyph glyph-name="gcommaaccent.ssg" horiz-adv-x="589" 
d="M231 600q50 87 131 173h87q-44 -99 -62 -173h-156zM286 434q-55 0 -80 -38t-25 -122q0 -146 96 -146q60 0 108 59v216q-46 31 -99 31zM388 32v87q-60 -96 -158 -96q-83 0 -132.5 64t-49.5 187q0 121 59 189.5t157 68.5q63 0 121 -29v19h132v-503q0 -96 -69.5 -150.5
t-174.5 -54.5q-113 0 -203 57l40 88q80 -50 164 -50q52 0 83 31t31 92z" />
    <glyph glyph-name="IJ.i_c" horiz-adv-x="862" 
d="M85 0v696h132v-696h-132zM549 -9q-110 0 -172 64t-71 187h131q7 -75 33.5 -108.5t83.5 -33.5q104 0 104 141v455h132v-459q0 -111 -63.5 -178.5t-177.5 -67.5z" />
    <glyph glyph-name="IJ.i_o" horiz-adv-x="765" 
d="M85 0v696h132v-696h-132zM452 -9q-75 0 -148 34v116q66 -41 147 -41q110 0 110 137v459h132v-463q0 -109 -63.5 -175.5t-177.5 -66.5z" />
    <glyph glyph-name="C.c" horiz-adv-x="651" 
d="M338 -9q-284 0 -284 366q0 171 72.5 259.5t212.5 88.5q119 0 186.5 -63t77.5 -178h-130q-8 73 -38.5 106t-96.5 33q-76 0 -114 -58.5t-38 -187.5q0 -140 37.5 -201t114.5 -61q68 0 98.5 31.5t36.5 101.5l130 1q-9 -112 -77.5 -175t-187.5 -63z" />
    <glyph glyph-name="Ccedilla.c" horiz-adv-x="651" 
d="M345 -193q-102 0 -149 67l64 51q27 -40 79 -40q48 0 48 32q0 18 -19 26t-66 8v41q-248 24 -248 365q0 171 72.5 259.5t212.5 88.5q119 0 186.5 -63t77.5 -178h-130q-8 73 -38.5 106t-96.5 33q-76 0 -114 -58.5t-38 -187.5q0 -140 37.5 -201t114.5 -61q68 0 98.5 31.5
t36.5 101.5l130 1q-8 -100 -65 -162t-156 -74v-6q50 -4 81.5 -26.5t31.5 -59.5q0 -47 -44 -70.5t-106 -23.5z" />
    <glyph glyph-name="Cacute.c" horiz-adv-x="651" 
d="M242 767q65 99 93 170h159q-90 -108 -163 -170h-89zM338 -9q-284 0 -284 366q0 171 72.5 259.5t212.5 88.5q119 0 186.5 -63t77.5 -178h-130q-8 73 -38.5 106t-96.5 33q-76 0 -114 -58.5t-38 -187.5q0 -140 37.5 -201t114.5 -61q68 0 98.5 31.5t36.5 101.5l130 1
q-9 -112 -77.5 -175t-187.5 -63z" />
    <glyph glyph-name="Ccircumflex.c" horiz-adv-x="651" 
d="M188 764l-45 58q80 62 146 134h102q63 -70 147 -134l-44 -57q-90 42 -155 94q-66 -54 -151 -95zM338 -9q-284 0 -284 366q0 171 72.5 259.5t212.5 88.5q119 0 186.5 -63t77.5 -178h-130q-8 73 -38.5 106t-96.5 33q-76 0 -114 -58.5t-38 -187.5q0 -140 37.5 -201
t114.5 -61q68 0 98.5 31.5t36.5 101.5l130 1q-9 -112 -77.5 -175t-187.5 -63z" />
    <glyph glyph-name="Cdotaccent.c" horiz-adv-x="651" 
d="M340 770q-35 0 -57.5 18.5t-22.5 50.5q0 33 22.5 52.5t57.5 19.5q36 0 58.5 -19.5t22.5 -52.5q0 -32 -23 -50.5t-58 -18.5zM338 -9q-284 0 -284 366q0 171 72.5 259.5t212.5 88.5q119 0 186.5 -63t77.5 -178h-130q-8 73 -38.5 106t-96.5 33q-76 0 -114 -58.5t-38 -187.5
q0 -140 37.5 -201t114.5 -61q68 0 98.5 31.5t36.5 101.5l130 1q-9 -112 -77.5 -175t-187.5 -63z" />
    <glyph glyph-name="Ccaron.c" horiz-adv-x="651" 
d="M290 772q-63 72 -147 135l44 57q75 -38 154 -95q68 54 152 95l45 -57q-83 -63 -146 -135h-102zM338 -9q-284 0 -284 366q0 171 72.5 259.5t212.5 88.5q119 0 186.5 -63t77.5 -178h-130q-8 73 -38.5 106t-96.5 33q-76 0 -114 -58.5t-38 -187.5q0 -140 37.5 -201t114.5 -61
q68 0 98.5 31.5t36.5 101.5l130 1q-9 -112 -77.5 -175t-187.5 -63z" />
    <glyph glyph-name="G.c" horiz-adv-x="671" 
d="M528 0l-11 75q-63 -84 -188 -84q-133 0 -204 92t-71 274q0 169 74.5 258.5t210.5 89.5q115 0 185.5 -56.5t80.5 -158.5h-130q-7 57 -40.5 85t-99.5 28q-149 0 -149 -246q0 -139 38 -200.5t114 -61.5q75 0 110.5 38t35.5 130h-142v103h273v-366h-87z" />
    <glyph glyph-name="Gcircumflex.c" horiz-adv-x="671" 
d="M190 764l-45 58q80 62 146 134h102q63 -70 147 -134l-44 -57q-90 42 -155 94q-66 -54 -151 -95zM528 0l-11 75q-63 -84 -188 -84q-133 0 -204 92t-71 274q0 169 74.5 258.5t210.5 89.5q115 0 185.5 -56.5t80.5 -158.5h-130q-7 57 -40.5 85t-99.5 28q-149 0 -149 -246
q0 -139 38 -200.5t114 -61.5q75 0 110.5 38t35.5 130h-142v103h273v-366h-87z" />
    <glyph glyph-name="Gbreve.c" horiz-adv-x="671" 
d="M342 767q-196 0 -197 190h106q1 -61 21.5 -84.5t69.5 -23.5q50 0 70.5 23.5t21.5 84.5h106q-1 -190 -198 -190zM528 0l-11 75q-63 -84 -188 -84q-133 0 -204 92t-71 274q0 169 74.5 258.5t210.5 89.5q115 0 185.5 -56.5t80.5 -158.5h-130q-7 57 -40.5 85t-99.5 28
q-149 0 -149 -246q0 -139 38 -200.5t114 -61.5q75 0 110.5 38t35.5 130h-142v103h273v-366h-87z" />
    <glyph glyph-name="Gdotaccent.c" horiz-adv-x="671" 
d="M342 770q-35 0 -57.5 18.5t-22.5 50.5q0 33 22.5 52.5t57.5 19.5q36 0 58.5 -19.5t22.5 -52.5q0 -32 -23 -50.5t-58 -18.5zM528 0l-11 75q-63 -84 -188 -84q-133 0 -204 92t-71 274q0 169 74.5 258.5t210.5 89.5q115 0 185.5 -56.5t80.5 -158.5h-130q-7 57 -40.5 85
t-99.5 28q-149 0 -149 -246q0 -139 38 -200.5t114 -61.5q75 0 110.5 38t35.5 130h-142v103h273v-366h-87z" />
    <glyph glyph-name="Gcommaaccent.c" horiz-adv-x="671" 
d="M528 0l-11 75q-63 -84 -188 -84q-133 0 -204 92t-71 274q0 169 74.5 258.5t210.5 89.5q115 0 185.5 -56.5t80.5 -158.5h-130q-7 57 -40.5 85t-99.5 28q-149 0 -149 -246q0 -139 38 -200.5t114 -61.5q75 0 110.5 38t35.5 130h-142v103h273v-366h-87zM225 -251
q36 83 62 174h156q-46 -82 -131 -174h-87z" />
    <glyph glyph-name="J.c" horiz-adv-x="580" 
d="M265 -9q-109 0 -171 64t-72 187h131q8 -76 34 -109t83 -33q104 0 104 141v455h132v-459q0 -111 -63.5 -178.5t-177.5 -67.5z" />
    <glyph glyph-name="Jcircumflex.c" horiz-adv-x="580" 
d="M267 764l-44 58q80 63 145 134h103q60 -69 146 -134l-44 -57q-91 42 -154 94q-68 -55 -152 -95zM265 -9q-109 0 -171 64t-72 187h131q8 -76 34 -109t83 -33q104 0 104 141v455h132v-459q0 -111 -63.5 -178.5t-177.5 -67.5z" />
    <glyph glyph-name="Q.c" horiz-adv-x="685" 
d="M525 -72l-77 84q-48 -15 -106 -15q-138 0 -213 89t-75 270q0 173 76 261t213 88q138 0 213 -88t75 -260q0 -183 -77 -274l61 -66zM342 95q20 0 29 1l-55 61l91 87l64 -70q27 61 27 183q0 132 -38 189t-118 57t-118 -57.5t-38 -190.5q0 -142 38 -201t118 -59z" />
    <glyph glyph-name="S.c" horiz-adv-x="622" 
d="M320 96q59 0 94 23.5t35 67.5q0 45 -34.5 68t-122.5 38q-121 19 -177 69t-56 140t65 145t176 55q108 0 179.5 -55.5t81.5 -156.5h-133q-12 111 -130 111q-50 0 -79 -21.5t-29 -64.5q0 -45 32 -68t120 -37q125 -20 181.5 -71.5t56.5 -139.5q0 -92 -72 -149t-188 -57
q-117 -1 -194 59t-84 164h132q10 -120 146 -120z" />
    <glyph glyph-name="Sacute.c" horiz-adv-x="622" 
d="M236 767q65 99 93 170h159q-90 -108 -163 -170h-89zM320 96q59 0 94 23.5t35 67.5q0 45 -34.5 68t-122.5 38q-121 19 -177 69t-56 140t65 145t176 55q108 0 179.5 -55.5t81.5 -156.5h-133q-12 111 -130 111q-50 0 -79 -21.5t-29 -64.5q0 -45 32 -68t120 -37
q125 -20 181.5 -71.5t56.5 -139.5q0 -92 -72 -149t-188 -57q-117 -1 -194 59t-84 164h132q10 -120 146 -120z" />
    <glyph glyph-name="Scircumflex.c" horiz-adv-x="622" 
d="M178 764l-45 58q81 63 145 134h103q61 -69 146 -134l-43 -57q-90 42 -155 94q-66 -54 -151 -95zM320 96q59 0 94 23.5t35 67.5q0 45 -34.5 68t-122.5 38q-121 19 -177 69t-56 140t65 145t176 55q108 0 179.5 -55.5t81.5 -156.5h-133q-12 111 -130 111q-50 0 -79 -21.5
t-29 -64.5q0 -45 32 -68t120 -37q125 -20 181.5 -71.5t56.5 -139.5q0 -92 -72 -149t-188 -57q-117 -1 -194 59t-84 164h132q10 -120 146 -120z" />
    <glyph glyph-name="Scedilla.c" horiz-adv-x="622" 
d="M322 -193q-102 0 -148 67l64 51q27 -40 79 -40q48 0 48 32q0 18 -19.5 26t-66.5 8v44q-101 9 -165.5 68t-71.5 153h132q10 -120 146 -120q59 0 94 23.5t35 67.5q0 45 -34.5 68t-122.5 38q-121 19 -177 69t-56 140t65 145t176 55q108 0 179.5 -55.5t81.5 -156.5h-133
q-12 111 -130 111q-50 0 -79 -21.5t-29 -64.5q0 -45 32 -68t120 -37q125 -20 181.5 -71.5t56.5 -139.5q0 -84 -60 -139t-160 -65v-8q50 -4 81.5 -26.5t31.5 -59.5q0 -47 -44 -70.5t-107 -23.5z" />
    <glyph glyph-name="Scaron.c" horiz-adv-x="622" 
d="M275 772q-61 71 -146 135l44 57q70 -35 154 -95q68 54 152 95l44 -57q-83 -65 -145 -135h-103zM320 96q59 0 94 23.5t35 67.5q0 45 -34.5 68t-122.5 38q-121 19 -177 69t-56 140t65 145t176 55q108 0 179.5 -55.5t81.5 -156.5h-133q-12 111 -130 111q-50 0 -79 -21.5
t-29 -64.5q0 -45 32 -68t120 -37q125 -20 181.5 -71.5t56.5 -139.5q0 -92 -72 -149t-188 -57q-117 -1 -194 59t-84 164h132q10 -120 146 -120z" />
    <glyph glyph-name="Scommaaccent.c" horiz-adv-x="622" 
d="M320 96q59 0 94 23.5t35 67.5q0 45 -34.5 68t-122.5 38q-121 19 -177 69t-56 140t65 145t176 55q108 0 179.5 -55.5t81.5 -156.5h-133q-12 111 -130 111q-50 0 -79 -21.5t-29 -64.5q0 -45 32 -68t120 -37q125 -20 181.5 -71.5t56.5 -139.5q0 -92 -72 -149t-188 -57
q-117 -1 -194 59t-84 164h132q10 -120 146 -120zM186 -251q40 93 62 174h156q-46 -82 -131 -174h-87z" />
    <glyph glyph-name="IJ.c" horiz-adv-x="1044" 
d="M49 0v103h133v490h-133v103h398v-103h-133v-490h133v-103h-398zM729 -9q-110 0 -172 64t-71 187h131q7 -75 33.5 -108.5t83.5 -33.5q103 0 103 141v455h133v-459q0 -111 -63.5 -178.5t-177.5 -67.5z" />
    <glyph glyph-name="a.c" horiz-adv-x="562" 
d="M247 79q41 0 70.5 22t29.5 68v55h-100q-34 0 -56 -17.5t-22 -52.5q0 -75 78 -75zM539 2q-60 -16 -105 3.5t-55 72.5q-48 -87 -169 -87q-73 0 -120.5 43t-47.5 113q0 74 50.5 114.5t135.5 40.5h118v48q0 43 -24.5 66.5t-68.5 23.5q-79 0 -89 -73h-110q21 165 207 165
q94 0 154 -47t60 -133v-220q0 -58 64 -42v-88z" />
    <glyph glyph-name="agrave.c" horiz-adv-x="562" 
d="M262 593q-74 63 -163 170h156q23 -54 95 -170h-88zM247 79q41 0 70.5 22t29.5 68v55h-100q-34 0 -56 -17.5t-22 -52.5q0 -75 78 -75zM539 2q-60 -16 -105 3.5t-55 72.5q-48 -87 -169 -87q-73 0 -120.5 43t-47.5 113q0 74 50.5 114.5t135.5 40.5h118v48q0 43 -24.5 66.5
t-68.5 23.5q-79 0 -89 -73h-110q21 165 207 165q94 0 154 -47t60 -133v-220q0 -58 64 -42v-88z" />
    <glyph glyph-name="aacute.c" horiz-adv-x="562" 
d="M178 593q65 99 93 170h159q-90 -108 -163 -170h-89zM247 79q41 0 70.5 22t29.5 68v55h-100q-34 0 -56 -17.5t-22 -52.5q0 -75 78 -75zM539 2q-60 -16 -105 3.5t-55 72.5q-48 -87 -169 -87q-73 0 -120.5 43t-47.5 113q0 74 50.5 114.5t135.5 40.5h118v48q0 43 -24.5 66.5
t-68.5 23.5q-79 0 -89 -73h-110q21 165 207 165q94 0 154 -47t60 -133v-220q0 -58 64 -42v-88z" />
    <glyph glyph-name="acircumflex.c" horiz-adv-x="562" 
d="M120 590l-45 58q81 63 146 135h102q62 -70 147 -135l-44 -57q-90 42 -155 94q-66 -54 -151 -95zM247 79q41 0 70.5 22t29.5 68v55h-100q-34 0 -56 -17.5t-22 -52.5q0 -75 78 -75zM539 2q-60 -16 -105 3.5t-55 72.5q-48 -87 -169 -87q-73 0 -120.5 43t-47.5 113
q0 74 50.5 114.5t135.5 40.5h118v48q0 43 -24.5 66.5t-68.5 23.5q-79 0 -89 -73h-110q21 165 207 165q94 0 154 -47t60 -133v-220q0 -58 64 -42v-88z" />
    <glyph glyph-name="atilde.c" horiz-adv-x="562" 
d="M343 601q-53 0 -88 46q-26 36 -38 42q-7 3 -14 3q-34 0 -33 -71v-11h-91v13q0 70 33 115t88 45q32 0 51 -12t39 -35q2 -3 9.5 -13.5t10.5 -14t9 -9.5t11 -8t10 -2q35 0 34 72v12h89v-13q0 -71 -32 -115t-88 -44zM247 79q41 0 70.5 22t29.5 68v55h-100q-34 0 -56 -17.5
t-22 -52.5q0 -75 78 -75zM539 2q-60 -16 -105 3.5t-55 72.5q-48 -87 -169 -87q-73 0 -120.5 43t-47.5 113q0 74 50.5 114.5t135.5 40.5h118v48q0 43 -24.5 66.5t-68.5 23.5q-79 0 -89 -73h-110q21 165 207 165q94 0 154 -47t60 -133v-220q0 -58 64 -42v-88z" />
    <glyph glyph-name="adieresis.c" horiz-adv-x="562" 
d="M370 597q-30 0 -48.5 18.5t-18.5 50.5q0 33 18.5 52t48.5 19t49 -19t19 -52q0 -32 -19 -50.5t-49 -18.5zM178 597q-30 0 -48.5 18.5t-18.5 50.5q0 33 18.5 52t48.5 19t48.5 -19t18.5 -52q0 -32 -19 -50.5t-48 -18.5zM247 79q41 0 70.5 22t29.5 68v55h-100
q-34 0 -56 -17.5t-22 -52.5q0 -75 78 -75zM539 2q-60 -16 -105 3.5t-55 72.5q-48 -87 -169 -87q-73 0 -120.5 43t-47.5 113q0 74 50.5 114.5t135.5 40.5h118v48q0 43 -24.5 66.5t-68.5 23.5q-79 0 -89 -73h-110q21 165 207 165q94 0 154 -47t60 -133v-220q0 -58 64 -42v-88z
" />
    <glyph glyph-name="aring.c" horiz-adv-x="562" 
d="M269 585q-71 0 -112.5 37.5t-41.5 105.5q0 67 42 104.5t112 37.5q71 0 113 -37.5t42 -104.5q0 -68 -42 -105.5t-113 -37.5zM269 652q62 0 62 76q0 35 -16 55t-46 20q-29 0 -45.5 -20.5t-16.5 -54.5q0 -76 62 -76zM247 79q41 0 70.5 22t29.5 68v55h-100q-34 0 -56 -17.5
t-22 -52.5q0 -75 78 -75zM539 2q-60 -16 -105 3.5t-55 72.5q-48 -87 -169 -87q-73 0 -120.5 43t-47.5 113q0 74 50.5 114.5t135.5 40.5h118v48q0 43 -24.5 66.5t-68.5 23.5q-79 0 -89 -73h-110q21 165 207 165q94 0 154 -47t60 -133v-220q0 -58 64 -42v-88z" />
    <glyph glyph-name="amacron.c" horiz-adv-x="562" 
d="M107 629v100h339v-100h-339zM247 79q41 0 70.5 22t29.5 68v55h-100q-34 0 -56 -17.5t-22 -52.5q0 -75 78 -75zM539 2q-60 -16 -105 3.5t-55 72.5q-48 -87 -169 -87q-73 0 -120.5 43t-47.5 113q0 74 50.5 114.5t135.5 40.5h118v48q0 43 -24.5 66.5t-68.5 23.5
q-79 0 -89 -73h-110q21 165 207 165q94 0 154 -47t60 -133v-220q0 -58 64 -42v-88z" />
    <glyph glyph-name="abreve.c" horiz-adv-x="562" 
d="M276 593q-196 0 -197 191h106q1 -61 21.5 -85t69.5 -24q50 0 70.5 24t21.5 85h106q-1 -191 -198 -191zM247 79q41 0 70.5 22t29.5 68v55h-100q-34 0 -56 -17.5t-22 -52.5q0 -75 78 -75zM539 2q-60 -16 -105 3.5t-55 72.5q-48 -87 -169 -87q-73 0 -120.5 43t-47.5 113
q0 74 50.5 114.5t135.5 40.5h118v48q0 43 -24.5 66.5t-68.5 23.5q-79 0 -89 -73h-110q21 165 207 165q94 0 154 -47t60 -133v-220q0 -58 64 -42v-88z" />
    <glyph glyph-name="aogonek.c" horiz-adv-x="562" 
d="M247 79q41 0 70.5 22t29.5 68v55h-100q-34 0 -56 -17.5t-22 -52.5q0 -75 78 -75zM567 -181q-43 -10 -89 -10q-65 0 -101.5 27t-36.5 77q0 64 66 112q-20 20 -27 53q-48 -87 -169 -87q-73 0 -120.5 43t-47.5 113q0 74 50.5 114.5t135.5 40.5h118v48q0 43 -24.5 66.5
t-68.5 23.5q-79 0 -89 -73h-110q21 165 207 165q94 0 154 -47t60 -133v-220q0 -58 64 -42v-88q-43 -12 -81 -4q-24 -28 -24 -57q0 -48 65 -48q24 0 69 9z" />
    <glyph glyph-name="aringacute.c" horiz-adv-x="562" 
d="M271 585q-71 0 -112.5 37.5t-41.5 105.5q0 55 29 90.5t81 46.5q57 88 86 159h159q-86 -103 -152 -160q50 -11 78 -46.5t28 -89.5q0 -68 -42 -105.5t-113 -37.5zM271 652q62 0 62 76q0 35 -16 55t-46 20q-29 0 -45.5 -20.5t-16.5 -54.5q0 -76 62 -76zM247 79q41 0 70.5 22
t29.5 68v55h-100q-34 0 -56 -17.5t-22 -52.5q0 -75 78 -75zM539 2q-60 -16 -105 3.5t-55 72.5q-48 -87 -169 -87q-73 0 -120.5 43t-47.5 113q0 74 50.5 114.5t135.5 40.5h118v48q0 43 -24.5 66.5t-68.5 23.5q-79 0 -89 -73h-110q21 165 207 165q94 0 154 -47t60 -133v-220
q0 -58 64 -42v-88z" />
    <glyph glyph-name="b.c" horiz-adv-x="596" 
d="M204 0h-132v715h132v-268q44 85 139 85q85 0 143.5 -70t58.5 -200q0 -131 -58.5 -201t-143.5 -70q-97 0 -139 72v-63zM305 428q-54 0 -80.5 -38.5t-26.5 -130.5t27 -131.5t80 -39.5t80 39.5t27 131.5q0 93 -27 131t-80 38z" />
    <glyph glyph-name="c.c" horiz-adv-x="540" 
d="M284 -9q-113 0 -173 70t-60 203q0 130 61 199t172 69q89 0 147 -54t68 -142h-126q-5 45 -29.5 71t-58.5 26q-54 0 -78 -41.5t-24 -127.5q0 -91 24 -133t79 -42q77 0 87 90h126q-9 -86 -66 -137t-149 -51z" />
    <glyph glyph-name="ccedilla.c" horiz-adv-x="540" 
d="M280 -193q-101 0 -148 67l64 51q27 -40 79 -40q48 0 48 32q0 18 -19 26t-66 8v43q-91 14 -139 82.5t-48 187.5q0 130 61 199t172 69q89 0 147 -54t68 -142h-126q-5 45 -29.5 71t-58.5 26q-54 0 -78 -41.5t-24 -127.5q0 -91 24 -133t79 -42q77 0 87 90h126
q-8 -77 -55.5 -126.5t-125.5 -59.5v-6q50 -4 81.5 -26.5t31.5 -59.5q0 -47 -44 -70.5t-107 -23.5z" />
    <glyph glyph-name="cacute.c" horiz-adv-x="540" 
d="M186 593q62 93 93 170h159q-90 -108 -163 -170h-89zM284 -9q-113 0 -173 70t-60 203q0 130 61 199t172 69q89 0 147 -54t68 -142h-126q-5 45 -29.5 71t-58.5 26q-54 0 -78 -41.5t-24 -127.5q0 -91 24 -133t79 -42q77 0 87 90h126q-9 -86 -66 -137t-149 -51z" />
    <glyph glyph-name="ccircumflex.c" horiz-adv-x="540" 
d="M123 590l-45 58q81 63 146 135h102q62 -70 147 -135l-44 -57q-90 42 -155 94q-66 -54 -151 -95zM284 -9q-113 0 -173 70t-60 203q0 130 61 199t172 69q89 0 147 -54t68 -142h-126q-5 45 -29.5 71t-58.5 26q-54 0 -78 -41.5t-24 -127.5q0 -91 24 -133t79 -42q77 0 87 90
h126q-9 -86 -66 -137t-149 -51z" />
    <glyph glyph-name="cdotaccent.c" horiz-adv-x="540" 
d="M271 597q-35 0 -57.5 18.5t-22.5 50.5t22.5 51.5t57.5 19.5q36 0 58.5 -19t22.5 -52q0 -32 -22.5 -50.5t-58.5 -18.5zM284 -9q-113 0 -173 70t-60 203q0 130 61 199t172 69q89 0 147 -54t68 -142h-126q-5 45 -29.5 71t-58.5 26q-54 0 -78 -41.5t-24 -127.5q0 -91 24 -133
t79 -42q77 0 87 90h126q-9 -86 -66 -137t-149 -51z" />
    <glyph glyph-name="ccaron.c" horiz-adv-x="540" 
d="M221 599q-64 72 -147 134l44 58q84 -44 154 -96q66 52 152 96l44 -58q-82 -64 -145 -134h-102zM284 -9q-113 0 -173 70t-60 203q0 130 61 199t172 69q89 0 147 -54t68 -142h-126q-5 45 -29.5 71t-58.5 26q-54 0 -78 -41.5t-24 -127.5q0 -91 24 -133t79 -42q77 0 87 90
h126q-9 -86 -66 -137t-149 -51z" />
    <glyph glyph-name="d.c" horiz-adv-x="595" 
d="M291 95q53 0 79.5 38t26.5 130t-26.5 131.5t-79.5 39.5q-54 0 -81 -39.5t-27 -131.5q0 -93 27 -130.5t81 -37.5zM390 716h132v-716h-129v75q-40 -84 -142 -84q-84 0 -142 69.5t-58 199.5q0 131 58 201.5t142 70.5q99 0 139 -73v257z" />
    <glyph glyph-name="dcaron.c" horiz-adv-x="595" 
d="M565 557q30 111 37 227h114q-18 -130 -87 -227h-64zM291 95q53 0 79.5 38t26.5 130t-26.5 131.5t-79.5 39.5q-54 0 -81 -39.5t-27 -131.5q0 -93 27 -130.5t81 -37.5zM390 716h132v-716h-129v75q-40 -84 -142 -84q-84 0 -142 69.5t-58 199.5q0 131 58 201.5t142 70.5
q99 0 139 -73v257z" />
    <glyph glyph-name="e.c" horiz-adv-x="562" 
d="M287 440q-49 0 -75 -29t-33 -95h206q-4 124 -98 124zM509 151q-10 -71 -70 -115.5t-147 -44.5q-113 0 -177 68.5t-64 202.5q0 131 64.5 200.5t171.5 69.5q103 0 163.5 -69.5t60.5 -193.5v-39h-333q4 -80 32 -114t84 -34q77 0 95 69h120z" />
    <glyph glyph-name="egrave.c" horiz-adv-x="562" 
d="M286 593q-71 60 -164 170h156q25 -59 95 -170h-87zM287 440q-49 0 -75 -29t-33 -95h206q-4 124 -98 124zM509 151q-10 -71 -70 -115.5t-147 -44.5q-113 0 -177 68.5t-64 202.5q0 131 64.5 200.5t171.5 69.5q103 0 163.5 -69.5t60.5 -193.5v-39h-333q4 -80 32 -114t84 -34
q77 0 95 69h120z" />
    <glyph glyph-name="eacute.c" horiz-adv-x="562" 
d="M196 593q62 91 94 170h158q-92 -111 -162 -170h-90zM287 440q-49 0 -75 -29t-33 -95h206q-4 124 -98 124zM509 151q-10 -71 -70 -115.5t-147 -44.5q-113 0 -177 68.5t-64 202.5q0 131 64.5 200.5t171.5 69.5q103 0 163.5 -69.5t60.5 -193.5v-39h-333q4 -80 32 -114
t84 -34q77 0 95 69h120z" />
    <glyph glyph-name="ecircumflex.c" horiz-adv-x="562" 
d="M137 590l-45 58q81 63 146 135h102q62 -70 147 -135l-44 -57q-91 42 -154 94q-68 -55 -152 -95zM287 440q-49 0 -75 -29t-33 -95h206q-4 124 -98 124zM509 151q-10 -71 -70 -115.5t-147 -44.5q-113 0 -177 68.5t-64 202.5q0 131 64.5 200.5t171.5 69.5q103 0 163.5 -69.5
t60.5 -193.5v-39h-333q4 -80 32 -114t84 -34q77 0 95 69h120z" />
    <glyph glyph-name="edieresis.c" horiz-adv-x="562" 
d="M385 597q-30 0 -48.5 18.5t-18.5 50.5q0 33 18.5 52t48.5 19t49 -19t19 -52q0 -32 -19 -50.5t-49 -18.5zM193 597q-31 0 -49 18.5t-18 50.5q0 33 18.5 52t48.5 19t48.5 -19t18.5 -52q0 -32 -18.5 -50.5t-48.5 -18.5zM287 440q-49 0 -75 -29t-33 -95h206q-4 124 -98 124z
M509 151q-10 -71 -70 -115.5t-147 -44.5q-113 0 -177 68.5t-64 202.5q0 131 64.5 200.5t171.5 69.5q103 0 163.5 -69.5t60.5 -193.5v-39h-333q4 -80 32 -114t84 -34q77 0 95 69h120z" />
    <glyph glyph-name="emacron.c" horiz-adv-x="562" 
d="M120 629v100h339v-100h-339zM287 440q-49 0 -75 -29t-33 -95h206q-4 124 -98 124zM509 151q-10 -71 -70 -115.5t-147 -44.5q-113 0 -177 68.5t-64 202.5q0 131 64.5 200.5t171.5 69.5q103 0 163.5 -69.5t60.5 -193.5v-39h-333q4 -80 32 -114t84 -34q77 0 95 69h120z" />
    <glyph glyph-name="ebreve.c" horiz-adv-x="562" 
d="M290 593q-197 0 -198 191h106q1 -61 21.5 -85t70.5 -24q49 0 69.5 24t21.5 85h106q-1 -191 -197 -191zM287 440q-49 0 -75 -29t-33 -95h206q-4 124 -98 124zM509 151q-10 -71 -70 -115.5t-147 -44.5q-113 0 -177 68.5t-64 202.5q0 131 64.5 200.5t171.5 69.5
q103 0 163.5 -69.5t60.5 -193.5v-39h-333q4 -80 32 -114t84 -34q77 0 95 69h120z" />
    <glyph glyph-name="edotaccent.c" horiz-adv-x="562" 
d="M290 597q-36 0 -58.5 18.5t-22.5 50.5q0 33 22.5 52t58.5 19q35 0 57.5 -19.5t22.5 -51.5t-22.5 -50.5t-57.5 -18.5zM287 440q-49 0 -75 -29t-33 -95h206q-4 124 -98 124zM509 151q-10 -71 -70 -115.5t-147 -44.5q-113 0 -177 68.5t-64 202.5q0 131 64.5 200.5
t171.5 69.5q103 0 163.5 -69.5t60.5 -193.5v-39h-333q4 -80 32 -114t84 -34q77 0 95 69h120z" />
    <glyph glyph-name="eogonek.c" horiz-adv-x="562" 
d="M287 440q-49 0 -75 -29t-33 -95h206q-4 124 -98 124zM493 -181q-44 -10 -90 -10q-64 0 -100.5 27t-36.5 77q0 40 30 78h-4q-113 0 -177 68.5t-64 202.5q0 131 64.5 200.5t171.5 69.5q103 0 163.5 -69.5t60.5 -193.5v-39h-333q4 -80 32 -114t84 -34q77 0 95 69h120
q-14 -97 -112 -139q-37 -36 -37 -71q0 -48 65 -48q22 0 69 9z" />
    <glyph glyph-name="ecaron.c" horiz-adv-x="562" 
d="M238 599q-64 72 -147 134l44 58q83 -43 155 -96q64 52 151 96l45 -58q-81 -62 -146 -134h-102zM287 440q-49 0 -75 -29t-33 -95h206q-4 124 -98 124zM509 151q-10 -71 -70 -115.5t-147 -44.5q-113 0 -177 68.5t-64 202.5q0 131 64.5 200.5t171.5 69.5q103 0 163.5 -69.5
t60.5 -193.5v-39h-333q4 -80 32 -114t84 -34q77 0 95 69h120z" />
    <glyph glyph-name="f.c" horiz-adv-x="409" 
d="M129 0v424h-100v98h100v30q0 80 48.5 121.5t142.5 41.5h65v-97h-49q-75 0 -75 -74v-22h124v-98h-124v-424h-132z" />
    <glyph glyph-name="g.c" 
d="M288 137q53 0 79.5 34t26.5 114t-27 114.5t-79 34.5q-53 0 -80 -34.5t-27 -114.5t27 -114t80 -34zM283 -186q-93 0 -153.5 43t-62.5 127h117q9 -75 99 -75q47 0 75.5 25t28.5 74v111q-41 -85 -145 -85q-83 0 -138.5 64t-55.5 184t58 185t142 65q52 0 87 -20.5t52 -52.5
v63h132v-512q0 -91 -68 -143.5t-168 -52.5z" />
    <glyph glyph-name="gcircumflex.c" 
d="M172 590l-45 58q83 64 145 135h103q64 -72 146 -135l-43 -57q-90 42 -155 94q-70 -56 -151 -95zM288 137q53 0 79.5 34t26.5 114t-27 114.5t-79 34.5q-53 0 -80 -34.5t-27 -114.5t27 -114t80 -34zM283 -186q-93 0 -153.5 43t-62.5 127h117q9 -75 99 -75q47 0 75.5 25
t28.5 74v111q-41 -85 -145 -85q-83 0 -138.5 64t-55.5 184t58 185t142 65q52 0 87 -20.5t52 -52.5v63h132v-512q0 -91 -68 -143.5t-168 -52.5z" />
    <glyph glyph-name="gbreve.c" 
d="M324 593q-196 0 -197 191h106q1 -61 21.5 -85t69.5 -24q50 0 70.5 24t21.5 85h105q-1 -191 -197 -191zM288 137q53 0 79.5 34t26.5 114t-27 114.5t-79 34.5q-53 0 -80 -34.5t-27 -114.5t27 -114t80 -34zM283 -186q-93 0 -153.5 43t-62.5 127h117q9 -75 99 -75
q47 0 75.5 25t28.5 74v111q-41 -85 -145 -85q-83 0 -138.5 64t-55.5 184t58 185t142 65q52 0 87 -20.5t52 -52.5v63h132v-512q0 -91 -68 -143.5t-168 -52.5z" />
    <glyph glyph-name="gdotaccent.c" 
d="M324 597q-36 0 -58 18.5t-22 50.5q0 33 22 52t58 19t58 -19t22 -52q0 -32 -22.5 -50.5t-57.5 -18.5zM288 137q53 0 79.5 34t26.5 114t-27 114.5t-79 34.5q-53 0 -80 -34.5t-27 -114.5t27 -114t80 -34zM283 -186q-93 0 -153.5 43t-62.5 127h117q9 -75 99 -75q47 0 75.5 25
t28.5 74v111q-41 -85 -145 -85q-83 0 -138.5 64t-55.5 184t58 185t142 65q52 0 87 -20.5t52 -52.5v63h132v-512q0 -91 -68 -143.5t-168 -52.5z" />
    <glyph glyph-name="gcommaaccent.c" 
d="M231 600q50 87 131 173h87q-44 -99 -62 -173h-156zM288 137q53 0 79.5 34t26.5 114t-27 114.5t-79 34.5q-53 0 -80 -34.5t-27 -114.5t27 -114t80 -34zM283 -186q-93 0 -153.5 43t-62.5 127h117q9 -75 99 -75q47 0 75.5 25t28.5 74v111q-41 -85 -145 -85q-83 0 -138.5 64
t-55.5 184t58 185t142 65q52 0 87 -20.5t52 -52.5v63h132v-512q0 -91 -68 -143.5t-168 -52.5z" />
    <glyph glyph-name="h.c" 
d="M204 0h-132v715h129v-266q18 37 57.5 60t91.5 23q75 0 124.5 -53t49.5 -138v-341h-132v312q0 116 -94 116t-94 -115v-313z" />
    <glyph glyph-name="hcircumflex.c" 
d="M-16 764l-45 58q81 63 145 134h103q65 -72 146 -134l-43 -57q-90 42 -155 94q-70 -56 -151 -95zM204 0h-132v715h129v-266q18 37 57.5 60t91.5 23q75 0 124.5 -53t49.5 -138v-341h-132v312q0 116 -94 116t-94 -115v-313z" />
    <glyph glyph-name="j.c" horiz-adv-x="298" 
d="M154 597q-36 0 -58 18.5t-22 50.5q0 33 22 52t58 19t58.5 -19t22.5 -52q0 -32 -22.5 -50.5t-58.5 -18.5zM40 -174h-69v99h53q63 0 63 74v523h135v-531q0 -80 -50 -122.5t-132 -42.5z" />
    <glyph glyph-name="m.c" horiz-adv-x="880" 
d="M204 313v-313h-132v522h129v-73q18 37 54.5 60t85.5 23q51 0 90.5 -26.5t59.5 -73.5q48 100 154 100q72 0 119.5 -53t47.5 -138v-341h-132v312q0 116 -87 116q-41 0 -63 -29.5t-22 -85.5v-313h-132v312q0 116 -86 116t-86 -115z" />
    <glyph glyph-name="n.c" 
d="M204 0h-132v522h129v-73q17 37 56.5 60t92.5 23q75 0 124.5 -52.5t49.5 -138.5v-341h-132v312q0 116 -94 116q-46 0 -70 -30t-24 -85v-313z" />
    <glyph glyph-name="ntilde.c" 
d="M383 601q-53 0 -88 46q-2 3 -7.5 9.5t-7.5 9.5t-6.5 8t-7.5 7.5t-7 5.5t-8 4t-8 1q-35 0 -34 -71v-11h-90v13q0 70 33 115t88 45q32 0 51 -12t38 -35q3 -4 10.5 -13.5t10.5 -13.5t9 -10t11 -8t10 -2q35 0 34 72v12h89v-13q0 -71 -32.5 -115t-87.5 -44zM204 0h-132v522
h129v-73q17 37 56.5 60t92.5 23q75 0 124.5 -52.5t49.5 -138.5v-341h-132v312q0 116 -94 116q-46 0 -70 -30t-24 -85v-313z" />
    <glyph glyph-name="nacute.c" 
d="M221 593q65 99 93 170h159q-90 -108 -163 -170h-89zM204 0h-132v522h129v-73q17 37 56.5 60t92.5 23q75 0 124.5 -52.5t49.5 -138.5v-341h-132v312q0 116 -94 116q-46 0 -70 -30t-24 -85v-313z" />
    <glyph glyph-name="ncommaaccent.c" 
d="M204 0h-132v522h129v-73q17 37 56.5 60t92.5 23q75 0 124.5 -52.5t49.5 -138.5v-341h-132v312q0 116 -94 116q-46 0 -70 -30t-24 -85v-313zM171 -251q36 83 62 174h156q-46 -82 -131 -174h-87z" />
    <glyph glyph-name="ncaron.c" 
d="M256 599q-66 74 -146 134l43 58q83 -43 155 -96q65 51 151 96l45 -58q-83 -63 -145 -134h-103zM204 0h-132v522h129v-73q17 37 56.5 60t92.5 23q75 0 124.5 -52.5t49.5 -138.5v-341h-132v312q0 116 -94 116q-46 0 -70 -30t-24 -85v-313z" />
    <glyph glyph-name="p.c" horiz-adv-x="596" 
d="M305 428q-54 0 -80.5 -38.5t-26.5 -130.5t27 -131.5t80 -39.5t80 39.5t27 131.5q0 93 -27 131t-80 38zM204 -174h-132v696h129v-75q43 85 142 85q85 0 143.5 -70t58.5 -200q0 -131 -58.5 -201t-143.5 -70q-97 0 -139 72v-237z" />
    <glyph glyph-name="q.c" horiz-adv-x="595" 
d="M393 522h129v-695h-132v248q-41 -84 -139 -84q-84 0 -142 69.5t-58 199.5q0 131 58 201.5t142 70.5q102 0 142 -73v63zM291 95q53 0 79.5 38t26.5 130t-26.5 131.5t-79.5 39.5q-54 0 -81 -39.5t-27 -131.5q0 -93 27 -130.5t81 -37.5z" />
    <glyph glyph-name="r.c" horiz-adv-x="411" 
d="M204 0h-132v522h129v-93q20 44 62.5 68t97.5 24h30v-102h-25q-74 0 -118 -38t-44 -112v-269z" />
    <glyph glyph-name="racute.c" horiz-adv-x="411" 
d="M173 593q65 99 93 170h159q-90 -108 -163 -170h-89zM204 0h-132v522h129v-93q20 44 62.5 68t97.5 24h30v-102h-25q-74 0 -118 -38t-44 -112v-269z" />
    <glyph glyph-name="rcommaaccent.c" horiz-adv-x="411" 
d="M204 0h-132v522h129v-93q20 44 62.5 68t97.5 24h30v-102h-25q-74 0 -118 -38t-44 -112v-269zM10 -251q37 84 62 174h157q-47 -82 -131 -174h-88z" />
    <glyph glyph-name="rcaron.c" horiz-adv-x="411" 
d="M204 599q-62 71 -146 134l44 58q83 -44 154 -96q66 52 152 96l44 -58q-78 -60 -145 -134h-103zM204 0h-132v522h129v-93q20 44 62.5 68t97.5 24h30v-102h-25q-74 0 -118 -38t-44 -112v-269z" />
    <glyph glyph-name="s.c" horiz-adv-x="522" 
d="M267 -9q-96 0 -159 44t-66 130h113q9 -83 113 -83q43 0 70 15.5t27 45.5q0 31 -24.5 43.5t-98.5 23.5q-96 15 -146 50.5t-50 108.5q0 74 60 118.5t149 44.5t148.5 -42t63.5 -123h-112q-6 72 -102 72q-85 0 -85 -57q0 -30 26 -42.5t106 -24.5q93 -13 140 -49.5t47 -106.5
q0 -78 -63 -123t-157 -45z" />
    <glyph glyph-name="sacute.c" horiz-adv-x="522" 
d="M181 593q62 93 93 170h159q-90 -108 -163 -170h-89zM267 -9q-96 0 -159 44t-66 130h113q9 -83 113 -83q43 0 70 15.5t27 45.5q0 31 -24.5 43.5t-98.5 23.5q-96 15 -146 50.5t-50 108.5q0 74 60 118.5t149 44.5t148.5 -42t63.5 -123h-112q-6 72 -102 72q-85 0 -85 -57
q0 -30 26 -42.5t106 -24.5q93 -13 140 -49.5t47 -106.5q0 -78 -63 -123t-157 -45z" />
    <glyph glyph-name="scircumflex.c" horiz-adv-x="522" 
d="M120 590l-45 58q81 63 146 135h102q62 -70 147 -135l-44 -57q-90 42 -155 94q-66 -54 -151 -95zM267 -9q-96 0 -159 44t-66 130h113q9 -83 113 -83q43 0 70 15.5t27 45.5q0 31 -24.5 43.5t-98.5 23.5q-96 15 -146 50.5t-50 108.5q0 74 60 118.5t149 44.5t148.5 -42
t63.5 -123h-112q-6 72 -102 72q-85 0 -85 -57q0 -30 26 -42.5t106 -24.5q93 -13 140 -49.5t47 -106.5q0 -78 -63 -123t-157 -45z" />
    <glyph glyph-name="scedilla.c" horiz-adv-x="522" 
d="M271 -193q-102 0 -148 67l64 51q27 -40 79 -40q48 0 48 32q0 18 -19 26t-66 8v42q-82 8 -133.5 51.5t-53.5 120.5h113q9 -83 113 -83q43 0 70 15.5t27 45.5q0 31 -24.5 43.5t-98.5 23.5q-96 15 -146 50.5t-50 108.5q0 74 60 118.5t149 44.5t148.5 -42t63.5 -123h-112
q-6 72 -102 72q-85 0 -85 -57q0 -30 26 -42.5t106 -24.5q93 -13 140 -49.5t47 -106.5q0 -69 -50 -112.5t-128 -53.5v-6q50 -4 81.5 -26.5t31.5 -59.5q0 -47 -44 -70.5t-107 -23.5z" />
    <glyph glyph-name="scaron.c" horiz-adv-x="522" 
d="M222 599q-64 72 -147 134l44 58q84 -44 154 -96q66 52 152 96l45 -58q-81 -62 -146 -134h-102zM267 -9q-96 0 -159 44t-66 130h113q9 -83 113 -83q43 0 70 15.5t27 45.5q0 31 -24.5 43.5t-98.5 23.5q-96 15 -146 50.5t-50 108.5q0 74 60 118.5t149 44.5t148.5 -42
t63.5 -123h-112q-6 72 -102 72q-85 0 -85 -57q0 -30 26 -42.5t106 -24.5q93 -13 140 -49.5t47 -106.5q0 -78 -63 -123t-157 -45z" />
    <glyph glyph-name="scommaaccent.c" horiz-adv-x="522" 
d="M267 -9q-96 0 -159 44t-66 130h113q9 -83 113 -83q43 0 70 15.5t27 45.5q0 31 -24.5 43.5t-98.5 23.5q-96 15 -146 50.5t-50 108.5q0 74 60 118.5t149 44.5t148.5 -42t63.5 -123h-112q-6 72 -102 72q-85 0 -85 -57q0 -30 26 -42.5t106 -24.5q93 -13 140 -49.5t47 -106.5
q0 -78 -63 -123t-157 -45zM126 -251q40 93 62 174h157q-48 -84 -132 -174h-87z" />
    <glyph glyph-name="t.c" horiz-adv-x="416" 
d="M300 0q-89 0 -136.5 42.5t-47.5 123.5v258h-91v98h91v144h132v-144h128v-98h-128v-254q0 -71 70 -71h58v-99h-76z" />
    <glyph glyph-name="tcedilla.c" horiz-adv-x="416" 
d="M264 -193q-102 0 -148 67l64 51q27 -40 79 -40q48 0 48 32q0 18 -19 26t-66 8v60q-106 32 -106 155v258h-91v98h91v144h132v-144h128v-98h-128v-254q0 -71 70 -71h58v-99h-74v-13q50 -4 81.5 -26.5t31.5 -59.5q0 -47 -44 -70.5t-107 -23.5z" />
    <glyph glyph-name="tcaron.c" horiz-adv-x="416" 
d="M329 609q29 105 37 226h115q-19 -129 -88 -226h-64zM300 0q-89 0 -136.5 42.5t-47.5 123.5v258h-91v98h91v144h132v-144h128v-98h-128v-254q0 -71 70 -71h58v-99h-76z" />
    <glyph glyph-name="tcommaaccent.c" horiz-adv-x="416" 
d="M300 0q-89 0 -136.5 42.5t-47.5 123.5v258h-91v98h91v144h132v-144h128v-98h-128v-254q0 -71 70 -71h58v-99h-76zM144 -251q37 84 62 174h157q-50 -86 -131 -174h-88z" />
    <glyph glyph-name="u.c" 
d="M387 522h132v-522h-128v73q-17 -37 -56.5 -59.5t-92.5 -22.5q-75 0 -125 52.5t-50 137.5v341h133v-312q0 -115 95 -115q92 0 92 114v313z" />
    <glyph glyph-name="ugrave.c" 
d="M286 593q-71 60 -164 170h156q25 -59 95 -170h-87zM387 522h132v-522h-128v73q-17 -37 -56.5 -59.5t-92.5 -22.5q-75 0 -125 52.5t-50 137.5v341h133v-312q0 -115 95 -115q92 0 92 114v313z" />
    <glyph glyph-name="uacute.c" 
d="M204 593q62 91 94 170h158q-86 -106 -162 -170h-90zM387 522h132v-522h-128v73q-17 -37 -56.5 -59.5t-92.5 -22.5q-75 0 -125 52.5t-50 137.5v341h133v-312q0 -115 95 -115q92 0 92 114v313z" />
    <glyph glyph-name="ucircumflex.c" 
d="M143 590l-44 58q81 64 145 135h103q59 -69 146 -135l-44 -57q-91 42 -154 94q-68 -55 -152 -95zM387 522h132v-522h-128v73q-17 -37 -56.5 -59.5t-92.5 -22.5q-75 0 -125 52.5t-50 137.5v341h133v-312q0 -115 95 -115q92 0 92 114v313z" />
    <glyph glyph-name="udieresis.c" 
d="M394 597q-30 0 -48.5 18.5t-18.5 50.5q0 33 18.5 52t48.5 19t49 -19t19 -52q0 -32 -19 -50.5t-49 -18.5zM202 597q-30 0 -48.5 18.5t-18.5 50.5q0 33 18.5 52t48.5 19t48.5 -19t18.5 -52q0 -32 -18.5 -50.5t-48.5 -18.5zM387 522h132v-522h-128v73q-17 -37 -56.5 -59.5
t-92.5 -22.5q-75 0 -125 52.5t-50 137.5v341h133v-312q0 -115 95 -115q92 0 92 114v313z" />
    <glyph glyph-name="utilde.c" 
d="M368 601q-53 0 -89 46q-1 2 -5.5 7.5t-6 7.5t-5 6.5t-5.5 6.5t-5 5.5t-5.5 5t-6 3.5t-6.5 2.5t-6 0.5q-35 0 -34 -71v-11h-90v13q0 71 32.5 115.5t88.5 44.5q50 0 89 -47q2 -3 7 -10t7.5 -10t7 -8.5t7.5 -8t7 -5.5t7.5 -4t7.5 -1q34 0 33 72v12h90v-13q0 -71 -32.5 -115
t-87.5 -44zM387 522h132v-522h-128v73q-17 -37 -56.5 -59.5t-92.5 -22.5q-75 0 -125 52.5t-50 137.5v341h133v-312q0 -115 95 -115q92 0 92 114v313z" />
    <glyph glyph-name="umacron.c" 
d="M126 629v100h339v-100h-339zM387 522h132v-522h-128v73q-17 -37 -56.5 -59.5t-92.5 -22.5q-75 0 -125 52.5t-50 137.5v341h133v-312q0 -115 95 -115q92 0 92 114v313z" />
    <glyph glyph-name="ubreve.c" 
d="M296 593q-196 0 -197 191h105q1 -61 21.5 -85t70.5 -24q49 0 69.5 24t21.5 85h106q-1 -191 -197 -191zM387 522h132v-522h-128v73q-17 -37 -56.5 -59.5t-92.5 -22.5q-75 0 -125 52.5t-50 137.5v341h133v-312q0 -115 95 -115q92 0 92 114v313z" />
    <glyph glyph-name="uring.c" 
d="M296 585q-71 0 -113 37.5t-42 105.5q0 67 42 104.5t113 37.5q70 0 112 -37.5t42 -104.5q0 -68 -41.5 -105.5t-112.5 -37.5zM296 652q62 0 62 76q0 34 -16 54.5t-46 20.5t-46 -20t-16 -55q0 -76 62 -76zM387 522h132v-522h-128v73q-17 -37 -56.5 -59.5t-92.5 -22.5
q-75 0 -125 52.5t-50 137.5v341h133v-312q0 -115 95 -115q92 0 92 114v313z" />
    <glyph glyph-name="uhungarumlaut.c" 
d="M155 593q31 88 47 170h129q-34 -68 -105 -170h-71zM332 593q32 90 47 170h128q-36 -77 -106 -170h-69zM387 522h132v-522h-128v73q-17 -37 -56.5 -59.5t-92.5 -22.5q-75 0 -125 52.5t-50 137.5v341h133v-312q0 -115 95 -115q92 0 92 114v313z" />
    <glyph glyph-name="uogonek.c" 
d="M570 -181q-43 -10 -89 -10q-65 0 -101.5 27t-36.5 77q0 52 48 98v62q-17 -37 -56.5 -59.5t-92.5 -22.5q-75 0 -125 52.5t-50 137.5v341h133v-312q0 -115 95 -115q92 0 92 114v313h132v-522h-56q-26 -27 -26 -59q0 -48 65 -48q24 0 69 9z" />
    <glyph glyph-name="y.c" horiz-adv-x="528" 
d="M131 -176h-68v99h51q37 0 57.5 20.5t33.5 61.5l5 14l-190 503h131l118 -351l114 351h127l-204 -558q-28 -74 -70.5 -107t-104.5 -33z" />
    <glyph glyph-name="yacute.c" horiz-adv-x="528" 
d="M153 593q65 96 94 170h158q-86 -106 -162 -170h-90zM131 -176h-68v99h51q37 0 57.5 20.5t33.5 61.5l5 14l-190 503h131l118 -351l114 351h127l-204 -558q-28 -74 -70.5 -107t-104.5 -33z" />
    <glyph glyph-name="ydieresis.c" horiz-adv-x="528" 
d="M348 597q-31 0 -49.5 18.5t-18.5 50.5q0 33 19 52t49 19t49 -19.5t19 -51.5t-19.5 -50.5t-48.5 -18.5zM155 597q-30 0 -48.5 18.5t-18.5 50.5q0 33 18.5 52t48.5 19t49 -19t19 -52q0 -32 -19 -50.5t-49 -18.5zM131 -176h-68v99h51q37 0 57.5 20.5t33.5 61.5l5 14
l-190 503h131l118 -351l114 351h127l-204 -558q-28 -74 -70.5 -107t-104.5 -33z" />
    <glyph glyph-name="ycircumflex.c" horiz-adv-x="528" 
d="M100 590l-45 58q83 64 145 135h103q64 -72 146 -135l-44 -57q-89 42 -154 94q-68 -54 -151 -95zM131 -176h-68v99h51q37 0 57.5 20.5t33.5 61.5l5 14l-190 503h131l118 -351l114 351h127l-204 -558q-28 -74 -70.5 -107t-104.5 -33z" />
    <glyph glyph-name="ygrave.c" horiz-adv-x="528" 
d="M248 593q-71 60 -164 170h157q20 -48 94 -170h-87zM131 -176h-68v99h51q37 0 57.5 20.5t33.5 61.5l5 14l-190 503h131l118 -351l114 351h127l-204 -558q-28 -74 -70.5 -107t-104.5 -33z" />
    <glyph glyph-name="napostrophe.c" 
d="M-29 593q65 99 93 170h159q-90 -108 -163 -170h-89zM204 0h-132v522h129v-73q17 37 56.5 60t92.5 23q75 0 124.5 -52.5t49.5 -138.5v-341h-132v312q0 116 -94 116q-46 0 -70 -30t-24 -85v-313z" />
    <glyph glyph-name="two.c" horiz-adv-x="626" 
d="M68 0v131q0 90 52.5 145.5t162.5 95.5q87 34 113.5 60t26.5 71q0 49 -28 76.5t-78 27.5q-55 0 -81.5 -30t-31.5 -90h-132q13 218 248 218q112 0 173.5 -54t61.5 -148q0 -85 -44.5 -134t-159.5 -92q-89 -34 -120 -63t-31 -81v-30h363v-103h-495z" />
    <glyph glyph-name="three.c" horiz-adv-x="626" 
d="M316 -9q-122 0 -186.5 51.5t-76.5 159.5h134q7 -59 38.5 -84.5t90.5 -25.5q115 0 115 110q0 63 -27 88.5t-92 25.5h-89v102h89q56 0 80 20t24 70q0 96 -108 96q-51 0 -76 -19.5t-29 -67.5h-128q25 188 237 188q107 0 171.5 -49t64.5 -141q0 -64 -39 -101.5t-97 -43.5
q64 -7 108 -51.5t44 -114.5q0 -107 -65.5 -160t-182.5 -53z" />
    <glyph glyph-name="five.c" horiz-adv-x="626" 
d="M314 -9q-239 0 -257 216h133q8 -62 38 -90t85 -28q57 0 87.5 35.5t30.5 105.5q0 65 -30.5 100t-84.5 35q-70 0 -103 -45l-132 2v374h457v-97h-325v-170q55 43 134 43q104 0 160.5 -61.5t56.5 -177.5q0 -110 -68 -176t-182 -66z" />
    <glyph glyph-name="six.c" horiz-adv-x="626" 
d="M580 222q0 -108 -70 -169.5t-196 -61.5t-195.5 69t-69.5 192v173q0 137 68 208.5t199 71.5q115 0 178.5 -51t78.5 -143h-133q-14 94 -126 94q-70 0 -101.5 -38t-31.5 -130v-68q50 66 174 66q109 0 167 -54t58 -159zM181 217q0 -128 133 -128t133 128q0 129 -133 129
t-133 -129z" />
    <glyph glyph-name="nine.c" horiz-adv-x="626" 
d="M445 479q0 128 -133 128t-133 -128t133 -128t133 128zM46 475q0 107 70 168.5t196 61.5t195.5 -69t69.5 -192v-173q0 -137 -68 -208.5t-199 -71.5q-115 0 -178.5 51t-78.5 143h133q14 -94 126 -94q70 0 101.5 38t31.5 130v68q-52 -66 -174 -66q-109 0 -167 54t-58 160z
" />
    <glyph glyph-name="question.c" horiz-adv-x="600" 
d="M315 233h-111l-2 148q96 6 147.5 23.5t66 40t14.5 60.5q0 49 -35 75.5t-96 26.5q-59 0 -88.5 -24t-33.5 -80h-130q12 100 78 151t179 51q116 0 187 -54.5t71 -145.5q0 -168 -245 -200zM258 -6q-38 0 -60 23t-22 63q0 38 22 61t60 23t59 -23t21 -61q0 -40 -21.5 -63
t-58.5 -23z" />
    <glyph glyph-name="C.o" horiz-adv-x="578" 
d="M382 -9q-328 0 -328 366q0 171 83.5 259.5t245.5 88.5q87 0 153 -34v-110q-62 42 -155 42q-99 0 -147 -58.5t-48 -187.5q0 -141 48 -201.5t147 -60.5q92 0 154 40v-110q-70 -34 -153 -34z" />
    <glyph glyph-name="Ccedilla.o" horiz-adv-x="578" 
d="M345 -193q-102 0 -149 67l64 51q27 -40 79 -40q48 0 48 32q0 18 -19 26t-66 8v46q-248 42 -248 360q0 171 83.5 259.5t245.5 88.5q87 0 153 -34v-110q-62 42 -155 42q-99 0 -147 -58.5t-48 -187.5q0 -141 48 -201.5t147 -60.5q92 0 154 40v-110q-70 -34 -153 -34v-4
q50 -4 81.5 -26.5t31.5 -59.5q0 -47 -44 -70.5t-106 -23.5z" />
    <glyph glyph-name="Cacute.o" horiz-adv-x="578" 
d="M242 767q65 99 93 170h159q-90 -108 -163 -170h-89zM382 -9q-328 0 -328 366q0 171 83.5 259.5t245.5 88.5q87 0 153 -34v-110q-62 42 -155 42q-99 0 -147 -58.5t-48 -187.5q0 -141 48 -201.5t147 -60.5q92 0 154 40v-110q-70 -34 -153 -34z" />
    <glyph glyph-name="Ccircumflex.o" horiz-adv-x="578" 
d="M188 764l-45 58q80 62 146 134h102q63 -70 147 -134l-44 -57q-90 42 -155 94q-66 -54 -151 -95zM382 -9q-328 0 -328 366q0 171 83.5 259.5t245.5 88.5q87 0 153 -34v-110q-62 42 -155 42q-99 0 -147 -58.5t-48 -187.5q0 -141 48 -201.5t147 -60.5q92 0 154 40v-110
q-70 -34 -153 -34z" />
    <glyph glyph-name="Cdotaccent.o" horiz-adv-x="578" 
d="M340 770q-35 0 -57.5 18.5t-22.5 50.5q0 33 22.5 52.5t57.5 19.5q36 0 58.5 -19.5t22.5 -52.5q0 -32 -23 -50.5t-58 -18.5zM382 -9q-328 0 -328 366q0 171 83.5 259.5t245.5 88.5q87 0 153 -34v-110q-62 42 -155 42q-99 0 -147 -58.5t-48 -187.5q0 -141 48 -201.5
t147 -60.5q92 0 154 40v-110q-70 -34 -153 -34z" />
    <glyph glyph-name="Ccaron.o" horiz-adv-x="578" 
d="M290 772q-63 72 -147 135l44 57q75 -38 154 -95q68 54 152 95l45 -57q-83 -63 -146 -135h-102zM382 -9q-328 0 -328 366q0 171 83.5 259.5t245.5 88.5q87 0 153 -34v-110q-62 42 -155 42q-99 0 -147 -58.5t-48 -187.5q0 -141 48 -201.5t147 -60.5q92 0 154 40v-110
q-70 -34 -153 -34z" />
    <glyph glyph-name="G.o" horiz-adv-x="661" 
d="M606 55q-40 -26 -106.5 -45t-138.5 -19q-149 0 -228 92t-79 274q0 168 87.5 258t239.5 90q93 0 181 -44v-110q-77 52 -186 52q-190 0 -190 -246q0 -140 44.5 -201t135.5 -61q69 0 108 21v159h-138v104h270v-324z" />
    <glyph glyph-name="Gcircumflex.o" horiz-adv-x="661" 
d="M190 764l-45 58q80 62 146 134h102q63 -70 147 -134l-44 -57q-90 42 -155 94q-66 -54 -151 -95zM606 55q-40 -26 -106.5 -45t-138.5 -19q-149 0 -228 92t-79 274q0 168 87.5 258t239.5 90q93 0 181 -44v-110q-77 52 -186 52q-190 0 -190 -246q0 -140 44.5 -201t135.5 -61
q69 0 108 21v159h-138v104h270v-324z" />
    <glyph glyph-name="Gbreve.o" horiz-adv-x="661" 
d="M342 767q-196 0 -197 190h106q1 -61 21.5 -84.5t69.5 -23.5q50 0 70.5 23.5t21.5 84.5h106q-1 -190 -198 -190zM606 55q-40 -26 -106.5 -45t-138.5 -19q-149 0 -228 92t-79 274q0 168 87.5 258t239.5 90q93 0 181 -44v-110q-77 52 -186 52q-190 0 -190 -246
q0 -140 44.5 -201t135.5 -61q69 0 108 21v159h-138v104h270v-324z" />
    <glyph glyph-name="Gdotaccent.o" horiz-adv-x="661" 
d="M342 770q-35 0 -57.5 18.5t-22.5 50.5q0 33 22.5 52.5t57.5 19.5q36 0 58.5 -19.5t22.5 -52.5q0 -32 -23 -50.5t-58 -18.5zM606 55q-40 -26 -106.5 -45t-138.5 -19q-149 0 -228 92t-79 274q0 168 87.5 258t239.5 90q93 0 181 -44v-110q-77 52 -186 52q-190 0 -190 -246
q0 -140 44.5 -201t135.5 -61q69 0 108 21v159h-138v104h270v-324z" />
    <glyph glyph-name="Gcommaaccent.o" horiz-adv-x="661" 
d="M606 55q-40 -26 -106.5 -45t-138.5 -19q-149 0 -228 92t-79 274q0 168 87.5 258t239.5 90q93 0 181 -44v-110q-77 52 -186 52q-190 0 -190 -246q0 -140 44.5 -201t135.5 -61q69 0 108 21v159h-138v104h270v-324zM225 -251q36 83 62 174h156q-46 -82 -131 -174h-87z" />
    <glyph glyph-name="J.o" horiz-adv-x="484" 
d="M169 -9q-76 0 -149 34v116q68 -41 148 -41q109 0 109 137v459h133v-463q0 -108 -63.5 -175t-177.5 -67z" />
    <glyph glyph-name="Jcircumflex.o" horiz-adv-x="484" 
d="M206 764l-44 58q80 63 145 134h103q60 -69 146 -134l-44 -57q-91 42 -154 94q-68 -55 -152 -95zM169 -9q-76 0 -149 34v116q68 -41 148 -41q109 0 109 137v459h133v-463q0 -108 -63.5 -175t-177.5 -67z" />
    <glyph glyph-name="Q.o" horiz-adv-x="685" 
d="M577 -176q-266 -48 -276 175q-119 12 -183 100.5t-64 256.5q0 173 76 261t213 88q138 0 213 -88t75 -260q0 -315 -225 -355q4 -55 44 -71t127 1v-108zM342 95q81 0 118.5 59t37.5 203q0 132 -38 189t-118 57t-118 -57.5t-38 -190.5q0 -142 38 -201t118 -59z" />
    <glyph glyph-name="S.o" horiz-adv-x="614" 
d="M290 -7q-136 0 -218 52v118q94 -67 230 -67q131 0 131 90q0 43 -32.5 65.5t-126.5 43.5q-112 24 -162 70t-50 131q0 92 65 149t176 57q136 0 207 -49v-115q-99 63 -199 63q-56 0 -87 -22t-31 -65q0 -41 30.5 -64t122.5 -43q116 -26 167.5 -74t51.5 -133
q0 -96 -73.5 -151.5t-201.5 -55.5z" />
    <glyph glyph-name="Sacute.o" horiz-adv-x="614" 
d="M236 767q65 99 93 170h159q-90 -108 -163 -170h-89zM290 -7q-136 0 -218 52v118q94 -67 230 -67q131 0 131 90q0 43 -32.5 65.5t-126.5 43.5q-112 24 -162 70t-50 131q0 92 65 149t176 57q136 0 207 -49v-115q-99 63 -199 63q-56 0 -87 -22t-31 -65q0 -41 30.5 -64
t122.5 -43q116 -26 167.5 -74t51.5 -133q0 -96 -73.5 -151.5t-201.5 -55.5z" />
    <glyph glyph-name="Scircumflex.o" horiz-adv-x="614" 
d="M178 764l-45 58q81 63 145 134h103q61 -69 146 -134l-43 -57q-90 42 -155 94q-66 -54 -151 -95zM290 -7q-136 0 -218 52v118q94 -67 230 -67q131 0 131 90q0 43 -32.5 65.5t-126.5 43.5q-112 24 -162 70t-50 131q0 92 65 149t176 57q136 0 207 -49v-115q-99 63 -199 63
q-56 0 -87 -22t-31 -65q0 -41 30.5 -64t122.5 -43q116 -26 167.5 -74t51.5 -133q0 -96 -73.5 -151.5t-201.5 -55.5z" />
    <glyph glyph-name="Scedilla.o" horiz-adv-x="614" 
d="M322 -193q-102 0 -148 67l64 51q27 -40 79 -40q48 0 48 32q0 18 -19.5 26t-66.5 8v42q-126 2 -207 52v118q94 -67 230 -67q131 0 131 90q0 43 -32.5 65.5t-126.5 43.5q-112 24 -162 70t-50 131q0 92 65 149t176 57q136 0 207 -49v-115q-99 63 -199 63q-56 0 -87 -22
t-31 -65q0 -41 30.5 -64t122.5 -43q116 -26 167.5 -74t51.5 -133q0 -82 -54 -135t-151 -67v-11q50 -4 81.5 -26.5t31.5 -59.5q0 -47 -44 -70.5t-107 -23.5z" />
    <glyph glyph-name="Scaron.o" horiz-adv-x="614" 
d="M275 772q-61 71 -146 135l44 57q70 -35 154 -95q68 54 152 95l44 -57q-83 -65 -145 -135h-103zM290 -7q-136 0 -218 52v118q94 -67 230 -67q131 0 131 90q0 43 -32.5 65.5t-126.5 43.5q-112 24 -162 70t-50 131q0 92 65 149t176 57q136 0 207 -49v-115q-99 63 -199 63
q-56 0 -87 -22t-31 -65q0 -41 30.5 -64t122.5 -43q116 -26 167.5 -74t51.5 -133q0 -96 -73.5 -151.5t-201.5 -55.5z" />
    <glyph glyph-name="Scommaaccent.o" horiz-adv-x="614" 
d="M290 -7q-136 0 -218 52v118q94 -67 230 -67q131 0 131 90q0 43 -32.5 65.5t-126.5 43.5q-112 24 -162 70t-50 131q0 92 65 149t176 57q136 0 207 -49v-115q-99 63 -199 63q-56 0 -87 -22t-31 -65q0 -41 30.5 -64t122.5 -43q116 -26 167.5 -74t51.5 -133
q0 -96 -73.5 -151.5t-201.5 -55.5zM186 -251q40 93 62 174h156q-46 -82 -131 -174h-87z" />
    <glyph glyph-name="IJ.o" horiz-adv-x="1038" 
d="M49 0v103h133v490h-133v103h398v-103h-133v-490h133v-103h-398zM651 -9q-75 0 -148 34v116q68 -41 147 -41q110 0 110 137v459h132v-463q0 -109 -63.5 -175.5t-177.5 -66.5z" />
    <glyph glyph-name="a.o" horiz-adv-x="545" 
d="M236 79q51 0 95 46v107h-87q-36 0 -59 -19t-23 -58q0 -76 74 -76zM523 2q-58 -16 -105 1.5t-59 64.5q-67 -77 -168 -77q-70 0 -112.5 41t-42.5 112q0 79 51 122.5t138 43.5h104v37q0 40 -27 64t-75 24q-70 0 -142 -44v104q66 37 163 37q92 0 151 -44t59 -136v-220
q0 -57 65 -42v-88z" />
    <glyph glyph-name="agrave.o" horiz-adv-x="545" 
d="M262 593q-74 63 -163 170h156q23 -54 95 -170h-88zM236 79q51 0 95 46v107h-87q-36 0 -59 -19t-23 -58q0 -76 74 -76zM523 2q-58 -16 -105 1.5t-59 64.5q-67 -77 -168 -77q-70 0 -112.5 41t-42.5 112q0 79 51 122.5t138 43.5h104v37q0 40 -27 64t-75 24q-70 0 -142 -44
v104q66 37 163 37q92 0 151 -44t59 -136v-220q0 -57 65 -42v-88z" />
    <glyph glyph-name="aacute.o" horiz-adv-x="545" 
d="M178 593q65 99 93 170h159q-90 -108 -163 -170h-89zM236 79q51 0 95 46v107h-87q-36 0 -59 -19t-23 -58q0 -76 74 -76zM523 2q-58 -16 -105 1.5t-59 64.5q-67 -77 -168 -77q-70 0 -112.5 41t-42.5 112q0 79 51 122.5t138 43.5h104v37q0 40 -27 64t-75 24q-70 0 -142 -44
v104q66 37 163 37q92 0 151 -44t59 -136v-220q0 -57 65 -42v-88z" />
    <glyph glyph-name="acircumflex.o" horiz-adv-x="545" 
d="M120 590l-45 58q81 63 146 135h102q62 -70 147 -135l-44 -57q-90 42 -155 94q-66 -54 -151 -95zM236 79q51 0 95 46v107h-87q-36 0 -59 -19t-23 -58q0 -76 74 -76zM523 2q-58 -16 -105 1.5t-59 64.5q-67 -77 -168 -77q-70 0 -112.5 41t-42.5 112q0 79 51 122.5t138 43.5
h104v37q0 40 -27 64t-75 24q-70 0 -142 -44v104q66 37 163 37q92 0 151 -44t59 -136v-220q0 -57 65 -42v-88z" />
    <glyph glyph-name="atilde.o" horiz-adv-x="545" 
d="M343 601q-53 0 -88 46q-26 36 -38 42q-7 3 -14 3q-34 0 -33 -71v-11h-91v13q0 70 33 115t88 45q32 0 51 -12t39 -35q2 -3 9.5 -13.5t10.5 -14t9 -9.5t11 -8t10 -2q35 0 34 72v12h89v-13q0 -71 -32 -115t-88 -44zM236 79q51 0 95 46v107h-87q-36 0 -59 -19t-23 -58
q0 -76 74 -76zM523 2q-58 -16 -105 1.5t-59 64.5q-67 -77 -168 -77q-70 0 -112.5 41t-42.5 112q0 79 51 122.5t138 43.5h104v37q0 40 -27 64t-75 24q-70 0 -142 -44v104q66 37 163 37q92 0 151 -44t59 -136v-220q0 -57 65 -42v-88z" />
    <glyph glyph-name="adieresis.o" horiz-adv-x="545" 
d="M369 597q-31 0 -49 18.5t-18 50.5q0 33 18.5 52t48.5 19t49 -19t19 -52q0 -32 -19 -50.5t-49 -18.5zM177 597q-31 0 -49 18.5t-18 50.5q0 33 18.5 52t48.5 19t48.5 -19t18.5 -52q0 -32 -19 -50.5t-48 -18.5zM236 79q51 0 95 46v107h-87q-36 0 -59 -19t-23 -58
q0 -76 74 -76zM523 2q-58 -16 -105 1.5t-59 64.5q-67 -77 -168 -77q-70 0 -112.5 41t-42.5 112q0 79 51 122.5t138 43.5h104v37q0 40 -27 64t-75 24q-70 0 -142 -44v104q66 37 163 37q92 0 151 -44t59 -136v-220q0 -57 65 -42v-88z" />
    <glyph glyph-name="aring.o" horiz-adv-x="545" 
d="M269 585q-71 0 -112.5 37.5t-41.5 105.5q0 67 42 104.5t112 37.5q71 0 113 -37.5t42 -104.5q0 -68 -42 -105.5t-113 -37.5zM269 652q62 0 62 76q0 35 -16 55t-46 20q-29 0 -45.5 -20.5t-16.5 -54.5q0 -76 62 -76zM236 79q51 0 95 46v107h-87q-36 0 -59 -19t-23 -58
q0 -76 74 -76zM523 2q-58 -16 -105 1.5t-59 64.5q-67 -77 -168 -77q-70 0 -112.5 41t-42.5 112q0 79 51 122.5t138 43.5h104v37q0 40 -27 64t-75 24q-70 0 -142 -44v104q66 37 163 37q92 0 151 -44t59 -136v-220q0 -57 65 -42v-88z" />
    <glyph glyph-name="amacron.o" horiz-adv-x="545" 
d="M107 629v100h339v-100h-339zM236 79q51 0 95 46v107h-87q-36 0 -59 -19t-23 -58q0 -76 74 -76zM523 2q-58 -16 -105 1.5t-59 64.5q-67 -77 -168 -77q-70 0 -112.5 41t-42.5 112q0 79 51 122.5t138 43.5h104v37q0 40 -27 64t-75 24q-70 0 -142 -44v104q66 37 163 37
q92 0 151 -44t59 -136v-220q0 -57 65 -42v-88z" />
    <glyph glyph-name="abreve.o" horiz-adv-x="545" 
d="M276 593q-196 0 -197 191h106q1 -61 21.5 -85t69.5 -24q50 0 70.5 24t21.5 85h106q-1 -191 -198 -191zM236 79q51 0 95 46v107h-87q-36 0 -59 -19t-23 -58q0 -76 74 -76zM523 2q-58 -16 -105 1.5t-59 64.5q-67 -77 -168 -77q-70 0 -112.5 41t-42.5 112q0 79 51 122.5
t138 43.5h104v37q0 40 -27 64t-75 24q-70 0 -142 -44v104q66 37 163 37q92 0 151 -44t59 -136v-220q0 -57 65 -42v-88z" />
    <glyph glyph-name="aogonek.o" horiz-adv-x="545" 
d="M236 79q51 0 95 46v107h-87q-36 0 -59 -19t-23 -58q0 -76 74 -76zM555 -181q-44 -10 -90 -10q-64 0 -100.5 27t-36.5 77q0 60 60 108q-22 19 -29 47q-67 -77 -168 -77q-70 0 -112.5 41t-42.5 112q0 79 51 122.5t138 43.5h104v37q0 40 -27 64t-75 24q-70 0 -142 -44v104
q66 37 163 37q92 0 151 -44t59 -136v-220q0 -57 65 -42v-88q-41 -11 -78 -6q-23 -26 -23 -55q0 -48 65 -48q22 0 69 9z" />
    <glyph glyph-name="aringacute.o" horiz-adv-x="545" 
d="M271 585q-71 0 -112.5 37.5t-41.5 105.5q0 55 29 90.5t81 46.5q57 88 86 159h159q-86 -103 -152 -160q50 -11 78 -46.5t28 -89.5q0 -68 -42 -105.5t-113 -37.5zM271 652q62 0 62 76q0 35 -16 55t-46 20q-29 0 -45.5 -20.5t-16.5 -54.5q0 -76 62 -76zM236 79q51 0 95 46
v107h-87q-36 0 -59 -19t-23 -58q0 -76 74 -76zM523 2q-58 -16 -105 1.5t-59 64.5q-67 -77 -168 -77q-70 0 -112.5 41t-42.5 112q0 79 51 122.5t138 43.5h104v37q0 40 -27 64t-75 24q-70 0 -142 -44v104q66 37 163 37q92 0 151 -44t59 -136v-220q0 -57 65 -42v-88z" />
    <glyph glyph-name="c.o" horiz-adv-x="491" 
d="M183 261q0 -172 131 -172q70 0 129 38v-105q-64 -31 -141 -31q-120 0 -185.5 69.5t-65.5 200.5t65.5 201t185.5 70q75 0 141 -32v-105q-56 38 -129 38q-131 0 -131 -172z" />
    <glyph glyph-name="ccedilla.o" horiz-adv-x="491" 
d="M280 -193q-101 0 -148 67l64 51q27 -40 79 -40q48 0 48 32q0 18 -19 26t-66 8v46q-90 17 -138.5 84.5t-48.5 179.5q0 131 65.5 201t185.5 70q75 0 141 -32v-105q-56 38 -129 38q-131 0 -131 -172t131 -172q70 0 129 38v-105q-53 -26 -125 -31v-4q50 -4 81.5 -26.5
t31.5 -59.5q0 -47 -44 -70.5t-107 -23.5z" />
    <glyph glyph-name="cacute.o" horiz-adv-x="491" 
d="M186 593q62 93 93 170h159q-90 -108 -163 -170h-89zM183 261q0 -172 131 -172q70 0 129 38v-105q-64 -31 -141 -31q-120 0 -185.5 69.5t-65.5 200.5t65.5 201t185.5 70q75 0 141 -32v-105q-56 38 -129 38q-131 0 -131 -172z" />
    <glyph glyph-name="ccircumflex.o" horiz-adv-x="491" 
d="M123 590l-45 58q81 63 146 135h102q62 -70 147 -135l-44 -57q-90 42 -155 94q-66 -54 -151 -95zM183 261q0 -172 131 -172q70 0 129 38v-105q-64 -31 -141 -31q-120 0 -185.5 69.5t-65.5 200.5t65.5 201t185.5 70q75 0 141 -32v-105q-56 38 -129 38q-131 0 -131 -172z
" />
    <glyph glyph-name="cdotaccent.o" horiz-adv-x="491" 
d="M271 597q-35 0 -57.5 18.5t-22.5 50.5t22.5 51.5t57.5 19.5q36 0 58.5 -19t22.5 -52q0 -32 -22.5 -50.5t-58.5 -18.5zM183 261q0 -172 131 -172q70 0 129 38v-105q-64 -31 -141 -31q-120 0 -185.5 69.5t-65.5 200.5t65.5 201t185.5 70q75 0 141 -32v-105q-56 38 -129 38
q-131 0 -131 -172z" />
    <glyph glyph-name="ccaron.o" horiz-adv-x="491" 
d="M221 599q-64 72 -147 134l44 58q84 -44 154 -96q66 52 152 96l44 -58q-82 -64 -145 -134h-102zM183 261q0 -172 131 -172q70 0 129 38v-105q-64 -31 -141 -31q-120 0 -185.5 69.5t-65.5 200.5t65.5 201t185.5 70q75 0 141 -32v-105q-56 38 -129 38q-131 0 -131 -172z" />
    <glyph glyph-name="e.o" horiz-adv-x="558" 
d="M286 440q-50 0 -76 -30t-32 -100h205q-1 130 -97 130zM477 27q-79 -36 -171 -36q-120 0 -187.5 68t-67.5 203q0 131 64 200.5t171 69.5q103 0 163 -66t60 -184v-58h-331q7 -75 38.5 -107.5t94.5 -32.5q93 0 166 46v-103z" />
    <glyph glyph-name="egrave.o" horiz-adv-x="558" 
d="M286 593q-71 60 -164 170h156q25 -59 95 -170h-87zM286 440q-50 0 -76 -30t-32 -100h205q-1 130 -97 130zM477 27q-79 -36 -171 -36q-120 0 -187.5 68t-67.5 203q0 131 64 200.5t171 69.5q103 0 163 -66t60 -184v-58h-331q7 -75 38.5 -107.5t94.5 -32.5q93 0 166 46v-103
z" />
    <glyph glyph-name="eacute.o" horiz-adv-x="558" 
d="M196 593q62 91 94 170h158q-92 -111 -162 -170h-90zM286 440q-50 0 -76 -30t-32 -100h205q-1 130 -97 130zM477 27q-79 -36 -171 -36q-120 0 -187.5 68t-67.5 203q0 131 64 200.5t171 69.5q103 0 163 -66t60 -184v-58h-331q7 -75 38.5 -107.5t94.5 -32.5q93 0 166 46
v-103z" />
    <glyph glyph-name="ecircumflex.o" horiz-adv-x="558" 
d="M137 590l-45 58q81 63 146 135h102q62 -70 147 -135l-44 -57q-91 42 -154 94q-68 -55 -152 -95zM286 440q-50 0 -76 -30t-32 -100h205q-1 130 -97 130zM477 27q-79 -36 -171 -36q-120 0 -187.5 68t-67.5 203q0 131 64 200.5t171 69.5q103 0 163 -66t60 -184v-58h-331
q7 -75 38.5 -107.5t94.5 -32.5q93 0 166 46v-103z" />
    <glyph glyph-name="edieresis.o" horiz-adv-x="558" 
d="M385 597q-30 0 -48.5 18.5t-18.5 50.5q0 33 18.5 52t48.5 19t49 -19t19 -52q0 -32 -19 -50.5t-49 -18.5zM193 597q-31 0 -49 18.5t-18 50.5q0 33 18.5 52t48.5 19t48.5 -19t18.5 -52q0 -32 -18.5 -50.5t-48.5 -18.5zM286 440q-50 0 -76 -30t-32 -100h205q-1 130 -97 130z
M477 27q-79 -36 -171 -36q-120 0 -187.5 68t-67.5 203q0 131 64 200.5t171 69.5q103 0 163 -66t60 -184v-58h-331q7 -75 38.5 -107.5t94.5 -32.5q93 0 166 46v-103z" />
    <glyph glyph-name="emacron.o" horiz-adv-x="558" 
d="M120 629v100h339v-100h-339zM286 440q-50 0 -76 -30t-32 -100h205q-1 130 -97 130zM477 27q-79 -36 -171 -36q-120 0 -187.5 68t-67.5 203q0 131 64 200.5t171 69.5q103 0 163 -66t60 -184v-58h-331q7 -75 38.5 -107.5t94.5 -32.5q93 0 166 46v-103z" />
    <glyph glyph-name="ebreve.o" horiz-adv-x="558" 
d="M290 593q-197 0 -198 191h106q1 -61 21.5 -85t70.5 -24q49 0 69.5 24t21.5 85h106q-1 -191 -197 -191zM286 440q-50 0 -76 -30t-32 -100h205q-1 130 -97 130zM477 27q-79 -36 -171 -36q-120 0 -187.5 68t-67.5 203q0 131 64 200.5t171 69.5q103 0 163 -66t60 -184v-58
h-331q7 -75 38.5 -107.5t94.5 -32.5q93 0 166 46v-103z" />
    <glyph glyph-name="edotaccent.o" horiz-adv-x="558" 
d="M290 597q-36 0 -58.5 18.5t-22.5 50.5q0 33 22.5 52t58.5 19q35 0 57.5 -19.5t22.5 -51.5t-22.5 -50.5t-57.5 -18.5zM286 440q-50 0 -76 -30t-32 -100h205q-1 130 -97 130zM477 27q-79 -36 -171 -36q-120 0 -187.5 68t-67.5 203q0 131 64 200.5t171 69.5q103 0 163 -66
t60 -184v-58h-331q7 -75 38.5 -107.5t94.5 -32.5q93 0 166 46v-103z" />
    <glyph glyph-name="eogonek.o" horiz-adv-x="558" 
d="M286 440q-50 0 -76 -30t-32 -100h205q-1 130 -97 130zM487 -181q-44 -10 -90 -10q-64 0 -100.5 27t-36.5 77q0 41 30 78q-113 5 -176 73t-63 198q0 131 64 200.5t171 69.5q103 0 163 -66t60 -184v-58h-331q7 -75 38.5 -107.5t94.5 -32.5q93 0 166 46v-103
q-47 -21 -100 -30q-23 -26 -23 -56q0 -48 65 -48q22 0 69 9z" />
    <glyph glyph-name="ecaron.o" horiz-adv-x="558" 
d="M238 599q-64 72 -147 134l44 58q83 -43 155 -96q64 52 151 96l45 -58q-81 -62 -146 -134h-102zM286 440q-50 0 -76 -30t-32 -100h205q-1 130 -97 130zM477 27q-79 -36 -171 -36q-120 0 -187.5 68t-67.5 203q0 131 64 200.5t171 69.5q103 0 163 -66t60 -184v-58h-331
q7 -75 38.5 -107.5t94.5 -32.5q93 0 166 46v-103z" />
    <glyph glyph-name="f.o" horiz-adv-x="423" 
d="M129 0v424h-100v98h100v40q0 94 84.5 136t181.5 10v-91q-31 9 -61 11t-51.5 -16.5t-21.5 -57.5v-32h134v-98h-134v-424h-132z" />
    <glyph glyph-name="j.o" horiz-adv-x="298" 
d="M154 597q-36 0 -58 18.5t-22 50.5q0 33 22 52t58 19t58.5 -19t22.5 -52q0 -32 -22.5 -50.5t-58.5 -18.5zM30 -182q-40 0 -77 12v95q38 -13 62 -13q72 0 72 83v527h135v-534q0 -83 -54 -126.5t-138 -43.5z" />
    <glyph glyph-name="r.o" horiz-adv-x="415" 
d="M204 0h-132v522h129v-93q24 47 64 73.5t87 26.5q27 0 44 -7v-117q-31 9 -61 9q-82 -2 -131 -58v-356z" />
    <glyph glyph-name="racute.o" horiz-adv-x="415" 
d="M173 593q65 99 93 170h159q-90 -108 -163 -170h-89zM204 0h-132v522h129v-93q24 47 64 73.5t87 26.5q27 0 44 -7v-117q-31 9 -61 9q-82 -2 -131 -58v-356z" />
    <glyph glyph-name="rcommaaccent.o" horiz-adv-x="415" 
d="M204 0h-132v522h129v-93q24 47 64 73.5t87 26.5q27 0 44 -7v-117q-31 9 -61 9q-82 -2 -131 -58v-356zM10 -251q37 84 62 174h157q-47 -82 -131 -174h-88z" />
    <glyph glyph-name="rcaron.o" horiz-adv-x="415" 
d="M204 599q-62 71 -146 134l44 58q83 -44 154 -96q66 52 152 96l44 -58q-78 -60 -145 -134h-103zM204 0h-132v522h129v-93q24 47 64 73.5t87 26.5q27 0 44 -7v-117q-31 9 -61 9q-82 -2 -131 -58v-356z" />
    <glyph glyph-name="s.o" horiz-adv-x="488" 
d="M225 -9q-92 0 -175 36v110q80 -51 176 -51q105 0 105 56q0 28 -19 40t-68 20q-103 15 -153 52.5t-50 111.5q0 75 61.5 120.5t151.5 45.5q80 0 153 -29v-107q-71 40 -150 40q-93 0 -93 -55q0 -26 20 -39t67 -21q107 -15 155 -53t48 -110q0 -78 -65 -122.5t-164 -44.5z" />
    <glyph glyph-name="sacute.o" horiz-adv-x="488" 
d="M181 593q62 93 93 170h159q-90 -108 -163 -170h-89zM225 -9q-92 0 -175 36v110q80 -51 176 -51q105 0 105 56q0 28 -19 40t-68 20q-103 15 -153 52.5t-50 111.5q0 75 61.5 120.5t151.5 45.5q80 0 153 -29v-107q-71 40 -150 40q-93 0 -93 -55q0 -26 20 -39t67 -21
q107 -15 155 -53t48 -110q0 -78 -65 -122.5t-164 -44.5z" />
    <glyph glyph-name="scircumflex.o" horiz-adv-x="488" 
d="M120 590l-45 58q81 63 146 135h102q62 -70 147 -135l-44 -57q-90 42 -155 94q-66 -54 -151 -95zM225 -9q-92 0 -175 36v110q80 -51 176 -51q105 0 105 56q0 28 -19 40t-68 20q-103 15 -153 52.5t-50 111.5q0 75 61.5 120.5t151.5 45.5q80 0 153 -29v-107q-71 40 -150 40
q-93 0 -93 -55q0 -26 20 -39t67 -21q107 -15 155 -53t48 -110q0 -78 -65 -122.5t-164 -44.5z" />
    <glyph glyph-name="scedilla.o" horiz-adv-x="488" 
d="M246 -193q-102 0 -148 67l64 51q27 -40 79 -40q48 0 48 32q0 18 -19.5 26t-66.5 8v40q-80 4 -153 36v110q80 -51 176 -51q105 0 105 56q0 28 -19 40t-68 20q-103 15 -153 52.5t-50 111.5q0 75 61.5 120.5t151.5 45.5q80 0 153 -29v-107q-71 40 -150 40q-93 0 -93 -55
q0 -26 20 -39t67 -21q107 -15 155 -53t48 -110q0 -66 -47 -108t-123 -55v-8q50 -4 81 -26.5t31 -59.5q0 -47 -44 -70.5t-106 -23.5z" />
    <glyph glyph-name="scaron.o" horiz-adv-x="488" 
d="M222 599q-64 72 -147 134l44 58q84 -44 154 -96q66 52 152 96l45 -58q-81 -62 -146 -134h-102zM225 -9q-92 0 -175 36v110q80 -51 176 -51q105 0 105 56q0 28 -19 40t-68 20q-103 15 -153 52.5t-50 111.5q0 75 61.5 120.5t151.5 45.5q80 0 153 -29v-107q-71 40 -150 40
q-93 0 -93 -55q0 -26 20 -39t67 -21q107 -15 155 -53t48 -110q0 -78 -65 -122.5t-164 -44.5z" />
    <glyph glyph-name="scommaaccent.o" horiz-adv-x="488" 
d="M225 -9q-92 0 -175 36v110q80 -51 176 -51q105 0 105 56q0 28 -19 40t-68 20q-103 15 -153 52.5t-50 111.5q0 75 61.5 120.5t151.5 45.5q80 0 153 -29v-107q-71 40 -150 40q-93 0 -93 -55q0 -26 20 -39t67 -21q107 -15 155 -53t48 -110q0 -78 -65 -122.5t-164 -44.5z
M126 -251q40 93 62 174h157q-48 -84 -132 -174h-87z" />
    <glyph glyph-name="t.o" horiz-adv-x="436" 
d="M297 -9q-88 0 -134.5 46t-46.5 134v253h-91v98h91v144h132v-144h148v-98h-148v-241q0 -92 67 -92q42 0 81 16v-95q-48 -21 -99 -21z" />
    <glyph glyph-name="tcedilla.o" horiz-adv-x="436" 
d="M277 -193q-101 0 -148 67l64 51q27 -40 79 -40q48 0 48 32q0 18 -19 26t-66 8v47q-119 29 -119 173v253h-91v98h91v144h132v-144h148v-98h-148v-241q0 -92 67 -92q42 0 81 16v-95q-42 -18 -81 -20v-5q50 -4 81.5 -26.5t31.5 -59.5q0 -47 -44 -70.5t-107 -23.5z" />
    <glyph glyph-name="tcaron.o" horiz-adv-x="436" 
d="M329 609q29 105 37 226h115q-19 -129 -88 -226h-64zM297 -9q-88 0 -134.5 46t-46.5 134v253h-91v98h91v144h132v-144h148v-98h-148v-241q0 -92 67 -92q42 0 81 16v-95q-48 -21 -99 -21z" />
    <glyph glyph-name="tcommaaccent.o" horiz-adv-x="436" 
d="M297 -9q-88 0 -134.5 46t-46.5 134v253h-91v98h91v144h132v-144h148v-98h-148v-241q0 -92 67 -92q42 0 81 16v-95q-48 -21 -99 -21zM144 -251q37 84 62 174h157q-50 -86 -131 -174h-88z" />
    <glyph glyph-name="y.o" horiz-adv-x="528" 
d="M119 -183q-37 0 -77 10v98q35 -10 60 -10q75 0 103 90l5 14l-190 503h131l118 -351l114 351h127l-204 -558q-55 -147 -187 -147z" />
    <glyph glyph-name="yacute.o" horiz-adv-x="528" 
d="M153 593q65 96 94 170h158q-86 -106 -162 -170h-90zM119 -183q-37 0 -77 10v98q35 -10 60 -10q75 0 103 90l5 14l-190 503h131l118 -351l114 351h127l-204 -558q-55 -147 -187 -147z" />
    <glyph glyph-name="ydieresis.o" horiz-adv-x="528" 
d="M348 597q-31 0 -49.5 18.5t-18.5 50.5q0 33 19 52t49 19t49 -19.5t19 -51.5t-19.5 -50.5t-48.5 -18.5zM155 597q-30 0 -48.5 18.5t-18.5 50.5q0 33 18.5 52t48.5 19t49 -19t19 -52q0 -32 -19 -50.5t-49 -18.5zM119 -183q-37 0 -77 10v98q35 -10 60 -10q75 0 103 90l5 14
l-190 503h131l118 -351l114 351h127l-204 -558q-55 -147 -187 -147z" />
    <glyph glyph-name="ycircumflex.o" horiz-adv-x="528" 
d="M100 590l-45 58q83 64 145 135h103q64 -72 146 -135l-44 -57q-89 42 -154 94q-68 -54 -151 -95zM119 -183q-37 0 -77 10v98q35 -10 60 -10q75 0 103 90l5 14l-190 503h131l118 -351l114 351h127l-204 -558q-55 -147 -187 -147z" />
    <glyph glyph-name="ygrave.o" horiz-adv-x="528" 
d="M248 593q-71 60 -164 170h157q20 -48 94 -170h-87zM119 -183q-37 0 -77 10v98q35 -10 60 -10q75 0 103 90l5 14l-190 503h131l118 -351l114 351h127l-204 -558q-55 -147 -187 -147z" />
    <glyph glyph-name="two.o" horiz-adv-x="626" 
d="M68 0v131q0 96 54.5 155t168.5 96q82 30 107 52.5t25 65.5q0 51 -41 79t-118 28q-96 0 -176 -36v106q87 28 178 28q138 0 213.5 -56t75.5 -149q0 -78 -50 -129t-170 -92q-78 -28 -106.5 -59.5t-28.5 -86.5v-30h363v-103h-495z" />
    <glyph glyph-name="three.o" horiz-adv-x="626" 
d="M261 -9q-106 0 -195 32v110q85 -41 182 -41q165 0 165 110q0 63 -27.5 88.5t-94.5 25.5h-90v102h90q58 0 82 20t24 70q0 96 -153 96q-85 0 -164 -42v110q87 33 182 33q122 0 195 -49t73 -141q0 -64 -40 -101.5t-100 -43.5q67 -8 112 -52t45 -114q0 -106 -77 -159.5
t-209 -53.5z" />
    <glyph glyph-name="five.o" horiz-adv-x="626" 
d="M267 -9q-94 0 -185 34v106q93 -42 183 -42q166 0 166 129q0 65 -37 99t-103 34h-210v345h457v-97h-325v-142h102q114 0 181.5 -60t67.5 -166q0 -112 -81 -176t-216 -64z" />
    <glyph glyph-name="six.o" horiz-adv-x="626" 
d="M379 705q81 0 154 -29v-109q-78 37 -156 37q-100 0 -149 -45t-49 -142v-48q52 66 174 66q109 0 167.5 -54t58.5 -159q0 -108 -70 -169.5t-197 -61.5q-126 0 -195.5 69t-69.5 192v152q0 141 87 221t245 80zM179 217q0 -128 133 -128t133 128q0 129 -133 129t-133 -129z
" />
    <glyph glyph-name="nine.o" horiz-adv-x="626" 
d="M446 479q0 128 -133 128t-133 -128t133 -128t133 128zM246 -9q-75 0 -155 29v109q78 -38 157 -38q100 0 149 45t49 143v48q-53 -66 -174 -66q-109 0 -167.5 54t-58.5 160q0 107 70 168.5t196 61.5t196 -69t70 -192v-152q0 -141 -87 -221t-245 -80z" />
    <glyph glyph-name="question.o" horiz-adv-x="524" 
d="M212 607q-96 0 -153 -35v103q66 30 166 30q112 0 181 -54t69 -143q0 -170 -232 -203l-2 -72h-111l-2 148q68 4 111.5 14.5t65.5 28t29.5 37t7.5 48.5q0 98 -130 98zM184 -6q-39 0 -60.5 23t-21.5 63q0 38 22 61t60 23q37 0 58.5 -23t21.5 -61q0 -40 -21.5 -63t-58.5 -23z
" />
    </font>
</defs>
</svg>
